<?xml version="1.0" standalone="no"?><!DOCTYPE svg PUBLIC "-//W3C//DTD SVG 1.1//EN" "http://www.w3.org/Graphics/SVG/1.1/DTD/svg11.dtd" ><svg version="1.1" xmlns="http://www.w3.org/2000/svg"><defs><font horiz-adv-x="0" id="font"><font-face ascent="715" bbox="-91 -283 1414 1100" cap-height="730" descent="-285" font-family="Samsung Sharp Sans Bold" font-stretch="normal" font-style="normal" font-weight="600" units-per-em="1000" x-height="585" /><missing-glyph d="M100 730H826V0H100ZM236 130H690V600H236ZM260 240 383 367 259 496 339 574 461 448 585 575 665 497 539 367 664 239 584 161 461 287 340 162Z" horiz-adv-x="926" /><glyph glyph-name=".null" horiz-adv-x="0" /><glyph d="M275 730H412L672 0H530L485 130H202L157 0H15ZM248 260H440L344 537Z" glyph-name="A" horiz-adv-x="687" unicode="A" /><glyph d="M346 730H904V600H518L560 432H904V302H593L636 130H904V0H526L494 129H213L155 0H13ZM269 255H463L395 534Z" glyph-name="AE" horiz-adv-x="938" unicode="&#198;" /><glyph d="M346 730H904V600H518L560 432H904V302H593L636 130H904V0H526L494 129H213L155 0H13ZM269 255H463L395 534ZM605 950H731L581 780H490Z" glyph-name="AEacute" horiz-adv-x="938" unicode="&#508;" /><glyph d="M275 730H412L672 0H530L485 130H202L157 0H15ZM248 260H440L344 537ZM412 950H538L388 780H297Z" glyph-name="Aacute" horiz-adv-x="687" unicode="&#193;" /><glyph d="M275 730H412L672 0H530L485 130H202L157 0H15ZM343 775Q302 775 271.5 788Q241 801 221 823.5Q201 846 191.5 877.5Q182 909 182 945H267Q267 897 286.5 874Q306 851 343 849Q379 851 399 874Q419 897 419 945H505Q505 909 494 877.5Q483 846 462 823.5Q441 801 411 788Q381 775 343 775ZM248 260H440L344 537Z" glyph-name="Abreve" horiz-adv-x="687" unicode="&#258;" /><glyph d="M275 730H412L672 0H530L485 130H202L157 0H15ZM300 950H384L503 780H401L342 869L283 780H181ZM248 260H440L344 537Z" glyph-name="Acircumflex" horiz-adv-x="687" unicode="&#194;" /><glyph d="M275 730H412L672 0H530L485 130H202L157 0H15ZM248 260H440L344 537ZM176 849Q176 881 195.5 901Q215 921 248 921Q282 921 301 901Q320 881 320 849Q320 817 301 797.5Q282 778 248 778Q214 778 195 797.5Q176 817 176 849ZM367 849Q367 881 386.5 901Q406 921 439 921Q472 921 491.5 901Q511 881 511 849Q511 817 491.5 797.5Q472 778 439 778Q404 778 385.5 797.5Q367 817 367 849Z" glyph-name="Adieresis" horiz-adv-x="687" unicode="&#196;" /><glyph d="M275 730H412L672 0H530L485 130H202L157 0H15ZM248 260H440L344 537ZM150 950H277L391 780H300Z" glyph-name="Agrave" horiz-adv-x="687" unicode="&#192;" /><glyph d="M275 730H412L672 0H530L485 130H202L157 0H15ZM248 260H440L344 537ZM213 866H477V780H213Z" glyph-name="Amacron" horiz-adv-x="687" unicode="&#256;" /><glyph d="M275 730H412L672 0H530L344 537L157 0H15Z" glyph-name="Anocross" horiz-adv-x="687" unicode="&#59185;" /><glyph d="M585 -227Q520 -227 480.5 -195.5Q441 -164 441 -118Q441 -86 459 -56Q477 -26 528 6L485 130H202L157 0H15L275 730H412L672 0Q631 -27 605.5 -44.5Q580 -62 566 -74Q552 -86 547 -94.5Q542 -103 542 -113Q542 -130 555 -137Q568 -144 585 -144Q605 -144 618 -135Q631 -126 645 -115L724 -169Q698 -193 659.5 -210Q621 -227 585 -227ZM248 260H440L344 537Z" glyph-name="Aogonek" horiz-adv-x="687" unicode="&#260;" /><glyph d="M260 688Q245 704 236 725Q227 746 227 770Q227 795 236 816.5Q245 838 261 854Q277 870 298 879Q319 888 343 888Q367 888 388.5 879Q410 870 426 854Q442 838 451 816.5Q460 795 460 770Q460 746 451 725Q442 704 426 688L672 0H530L485 130H202L157 0H15ZM248 260H440L344 537ZM343 731Q360 731 372 742.5Q384 754 384 770Q384 787 372 799Q360 811 343 811Q326 811 314.5 799Q303 787 303 770Q303 754 314.5 742.5Q326 731 343 731Z" glyph-name="Aring" horiz-adv-x="687" unicode="&#197;" /><glyph d="M261 691Q247 706 238.5 726.5Q230 747 230 770Q230 795 239 816.5Q248 838 264 854Q280 870 301 879Q322 888 346 888Q370 888 391.5 879Q413 870 429 854Q445 838 454 816.5Q463 795 463 770Q463 745 453.5 723.5Q444 702 427 686L672 0H530L485 130H202L157 0H15ZM248 260H440L344 536ZM414 1100H540L390 930H299ZM346 731Q363 731 375 742.5Q387 754 387 770Q387 787 375 799Q363 811 346 811Q329 811 317.5 799Q306 787 306 770Q306 754 317.5 742.5Q329 731 346 731Z" glyph-name="Aringacute" horiz-adv-x="687" unicode="&#506;" /><glyph d="M275 730H412L672 0H530L485 130H202L157 0H15ZM173 780Q173 841 200.5 878Q228 915 277 915Q302 915 320 907.5Q338 900 354 891Q368 881 380.5 873.5Q393 866 406 866Q434 866 434 911H512Q512 849 486 812.5Q460 776 407 776Q378 776 357.5 786.5Q337 797 320 807Q309 814 298.5 819Q288 824 277 824Q251 824 251 780ZM248 260H440L344 537Z" glyph-name="Atilde" horiz-adv-x="687" unicode="&#195;" /><glyph d="M275 730H412L672 0H530L485 130H202L157 0H15ZM248 260H440L344 537ZM58 730H192V593H58ZM495 730H629V593H495Z" glyph-name="Aumlaut" horiz-adv-x="687" unicode="&#61814;" /><glyph d="M42 730H272Q393 730 459.5 678Q526 626 526 526Q526 431 446 384Q497 361 524.5 319Q552 277 552 216Q552 108 481.5 54Q411 0 290 0H42ZM178 312V125H290Q352 125 383.5 149.5Q415 174 415 219Q415 264 387.5 288Q360 312 284 312ZM178 605V439H272Q337 439 363 463Q389 487 389 526Q389 567 362 586Q335 605 272 605Z" glyph-name="B" horiz-adv-x="573" unicode="B" /><glyph d="M397 -10Q313 -10 243.5 19.5Q174 49 125 99.5Q76 150 49 218.5Q22 287 22 365Q22 447 51 515.5Q80 584 130.5 634Q181 684 249.5 712Q318 740 397 740Q448 740 495.5 727Q543 714 584.5 690.5Q626 667 659.5 633.5Q693 600 717 559L598 483Q566 540 517 573Q468 606 397 606Q345 606 301 587.5Q257 569 225 536.5Q193 504 175 460Q157 416 157 365Q157 315 175 271.5Q193 228 224.5 195.5Q256 163 299.5 144.5Q343 126 394 126Q470 126 522.5 164.5Q575 203 604 263L728 198Q704 152 669.5 113.5Q635 75 592.5 47.5Q550 20 500.5 5Q451 -10 397 -10Z" glyph-name="C" horiz-adv-x="738" unicode="C" /><glyph d="M464 950H590L440 780H349ZM397 -10Q313 -10 243.5 19.5Q174 49 125 99.5Q76 150 49 218.5Q22 287 22 365Q22 447 51 515.5Q80 584 130.5 634Q181 684 249.5 712Q318 740 397 740Q448 740 495.5 727Q543 714 584.5 690.5Q626 667 659.5 633.5Q693 600 717 559L598 483Q566 540 517 573Q468 606 397 606Q345 606 301 587.5Q257 569 225 536.5Q193 504 175 460Q157 416 157 365Q157 315 175 271.5Q193 228 224.5 195.5Q256 163 299.5 144.5Q343 126 394 126Q470 126 522.5 164.5Q575 203 604 263L728 198Q704 152 669.5 113.5Q635 75 592.5 47.5Q550 20 500.5 5Q451 -10 397 -10Z" glyph-name="Cacute" horiz-adv-x="738" unicode="&#262;" /><glyph d="M397 -10Q313 -10 243.5 19.5Q174 49 125 99.5Q76 150 49 218.5Q22 287 22 365Q22 447 51 515.5Q80 584 130.5 634Q181 684 249.5 712Q318 740 397 740Q448 740 495.5 727Q543 714 584.5 690.5Q626 667 659.5 633.5Q693 600 717 559L598 483Q566 540 517 573Q468 606 397 606Q345 606 301 587.5Q257 569 225 536.5Q193 504 175 460Q157 416 157 365Q157 315 175 271.5Q193 228 224.5 195.5Q256 163 299.5 144.5Q343 126 394 126Q470 126 522.5 164.5Q575 203 604 263L728 198Q704 152 669.5 113.5Q635 75 592.5 47.5Q550 20 500.5 5Q451 -10 397 -10ZM237 950H339L398 861L457 950H559L440 780H356Z" glyph-name="Ccaron" horiz-adv-x="738" unicode="&#268;" /><glyph d="M388 -240Q348 -240 310.5 -223.5Q273 -207 244 -181L322 -134Q339 -148 355.5 -158Q372 -168 398 -168Q420 -168 436.5 -159Q453 -150 453 -137Q453 -110 395 -110H345V-6Q272 3 212 35Q152 67 110 116.5Q68 166 45 229.5Q22 293 22 365Q22 447 51 515.5Q80 584 130.5 634Q181 684 249.5 712Q318 740 397 740Q448 740 495.5 727Q543 714 584.5 690.5Q626 667 659.5 633.5Q693 600 717 559L598 483Q566 540 517 573Q468 606 397 606Q345 606 301 587.5Q257 569 225 536.5Q193 504 175 460Q157 416 157 365Q157 315 175 271.5Q193 228 224.5 195.5Q256 163 299.5 144.5Q343 126 394 126Q470 126 522.5 164.5Q575 203 604 263L728 198Q683 111 605.5 55.5Q528 0 429 -8V-53Q485 -51 514.5 -73.5Q544 -96 544 -133Q544 -156 532 -176Q520 -196 499 -210Q478 -224 449.5 -232Q421 -240 388 -240Z" glyph-name="Ccedilla" horiz-adv-x="738" unicode="&#199;" /><glyph d="M397 -10Q313 -10 243.5 19.5Q174 49 125 99.5Q76 150 49 218.5Q22 287 22 365Q22 447 51 515.5Q80 584 130.5 634Q181 684 249.5 712Q318 740 397 740Q448 740 495.5 727Q543 714 584.5 690.5Q626 667 659.5 633.5Q693 600 717 559L598 483Q566 540 517 573Q468 606 397 606Q345 606 301 587.5Q257 569 225 536.5Q193 504 175 460Q157 416 157 365Q157 315 175 271.5Q193 228 224.5 195.5Q256 163 299.5 144.5Q343 126 394 126Q470 126 522.5 164.5Q575 203 604 263L728 198Q704 152 669.5 113.5Q635 75 592.5 47.5Q550 20 500.5 5Q451 -10 397 -10ZM359 950H443L562 780H460L401 869L342 780H240Z" glyph-name="Ccircumflex" horiz-adv-x="738" unicode="&#264;" /><glyph d="M397 -10Q313 -10 243.5 19.5Q174 49 125 99.5Q76 150 49 218.5Q22 287 22 365Q22 447 51 515.5Q80 584 130.5 634Q181 684 249.5 712Q318 740 397 740Q448 740 495.5 727Q543 714 584.5 690.5Q626 667 659.5 633.5Q693 600 717 559L598 483Q566 540 517 573Q468 606 397 606Q345 606 301 587.5Q257 569 225 536.5Q193 504 175 460Q157 416 157 365Q157 315 175 271.5Q193 228 224.5 195.5Q256 163 299.5 144.5Q343 126 394 126Q470 126 522.5 164.5Q575 203 604 263L728 198Q704 152 669.5 113.5Q635 75 592.5 47.5Q550 20 500.5 5Q451 -10 397 -10ZM324 849Q324 884 345.5 906Q367 928 403 928Q440 928 461 906Q482 884 482 849Q482 814 461 792.5Q440 771 403 771Q365 771 344.5 792.5Q324 814 324 849Z" glyph-name="Cdotaccent" horiz-adv-x="738" unicode="&#266;" /><glyph d="M42 730H241Q333 730 405 702Q477 674 526.5 625Q576 576 601.5 509.5Q627 443 627 365Q627 287 599 220Q571 153 520.5 104.5Q470 56 400 28Q330 0 247 0H42ZM178 604V126H231Q291 126 339 144Q387 162 420.5 194.5Q454 227 472.5 270.5Q491 314 491 365Q491 418 475 461.5Q459 505 426 537Q393 569 343 586.5Q293 604 225 604Z" glyph-name="D" horiz-adv-x="648" unicode="D" /><glyph d="M42 730H241Q333 730 405 702Q477 674 526.5 625Q576 576 601.5 509.5Q627 443 627 365Q627 287 599 220Q571 153 520.5 104.5Q470 56 400 28Q330 0 247 0H42ZM178 604V126H231Q291 126 339 144Q387 162 420.5 194.5Q454 227 472.5 270.5Q491 314 491 365Q491 418 475 461.5Q459 505 426 537Q393 569 343 586.5Q293 604 225 604ZM105 950H207L266 861L325 950H427L308 780H224Z" glyph-name="Dcaron" horiz-adv-x="648" unicode="&#270;" /><glyph d="M20 424H89V730H288Q380 730 452 702Q524 674 573.5 625Q623 576 648.5 509.5Q674 443 674 365Q674 287 646 220Q618 153 567.5 104.5Q517 56 447 28Q377 0 294 0H89V309H20ZM225 604V424H390V309H225V126H278Q338 126 386 144Q434 162 467.5 194.5Q501 227 519.5 270.5Q538 314 538 365Q538 418 522 461.5Q506 505 473 537Q440 569 390 586.5Q340 604 272 604Z" glyph-name="Dcroat" horiz-adv-x="695" unicode="&#272;" /><glyph d="M20 0 449 742 877 0ZM246 130H652L449 482Z" glyph-name="Delta" horiz-adv-x="897" unicode="&#8710;" /><glyph d="M42 730H475V600H178V432H475V302H178V130H475V0H42Z" glyph-name="E" horiz-adv-x="509" unicode="E" /><glyph d="M42 730H475V600H178V432H475V302H178V130H475V0H42ZM317 950H443L293 780H202Z" glyph-name="Eacute" horiz-adv-x="509" unicode="&#201;" /><glyph d="M42 730H475V600H178V432H475V302H178V130H475V0H42ZM262 775Q221 775 190.5 788Q160 801 140 823.5Q120 846 110.5 877.5Q101 909 101 945H186Q186 897 205.5 874Q225 851 262 849Q298 851 318 874Q338 897 338 945H424Q424 909 413 877.5Q402 846 381 823.5Q360 801 330 788Q300 775 262 775Z" glyph-name="Ebreve" horiz-adv-x="509" unicode="&#276;" /><glyph d="M42 730H475V600H178V432H475V302H178V130H475V0H42ZM96 950H198L257 861L316 950H418L299 780H215Z" glyph-name="Ecaron" horiz-adv-x="509" unicode="&#282;" /><glyph d="M42 730H475V600H178V432H475V302H178V130H475V0H42ZM216 950H300L419 780H317L258 869L199 780H97Z" glyph-name="Ecircumflex" horiz-adv-x="509" unicode="&#202;" /><glyph d="M42 730H475V600H178V432H475V302H178V130H475V0H42ZM95 849Q95 881 114.5 901Q134 921 167 921Q201 921 220 901Q239 881 239 849Q239 817 220 797.5Q201 778 167 778Q133 778 114 797.5Q95 817 95 849ZM286 849Q286 881 305.5 901Q325 921 358 921Q391 921 410.5 901Q430 881 430 849Q430 817 410.5 797.5Q391 778 358 778Q323 778 304.5 797.5Q286 817 286 849Z" glyph-name="Edieresis" horiz-adv-x="509" unicode="&#203;" /><glyph d="M42 730H475V600H178V432H475V302H178V130H475V0H42ZM197 849Q197 884 218.5 906Q240 928 276 928Q313 928 334 906Q355 884 355 849Q355 814 334 792.5Q313 771 276 771Q238 771 217.5 792.5Q197 814 197 849Z" glyph-name="Edotaccent" horiz-adv-x="509" unicode="&#278;" /><glyph d="M42 730H475V600H178V432H475V302H178V130H475V0H42ZM72 950H199L313 780H222Z" glyph-name="Egrave" horiz-adv-x="509" unicode="&#200;" /><glyph d="M42 730H475V600H178V432H475V302H178V130H475V0H42ZM127 866H391V780H127Z" glyph-name="Emacron" horiz-adv-x="509" unicode="&#274;" /><glyph d="M436 -75H442Q464 -75 477.5 -72Q491 -69 498.5 -61.5Q506 -54 509 -40.5Q512 -27 512 -6V27L178 521V0H42V730H196L512 264V730H648V-1Q648 -60 637.5 -99.5Q627 -139 604.5 -163Q582 -187 545.5 -197.5Q509 -208 456 -208H436Z" glyph-name="Eng" horiz-adv-x="690" unicode="&#330;" /><glyph d="M42 730H475V600H178V432H475V302H178V130H475V0H476Q435 -27 409.5 -44.5Q384 -62 370 -74Q356 -86 351 -94.5Q346 -103 346 -113Q346 -130 359 -137Q372 -144 389 -144Q409 -144 422 -135Q435 -126 449 -115L528 -169Q502 -193 463.5 -210Q425 -227 389 -227Q324 -227 284.5 -195.5Q245 -164 245 -118Q245 -88 261 -59.5Q277 -31 322 0H42Z" glyph-name="Eogonek" horiz-adv-x="509" unicode="&#280;" /><glyph d="M20 424H89V730H288Q380 730 452 702Q524 674 573.5 625Q623 576 648.5 509.5Q674 443 674 365Q674 287 646 220Q618 153 567.5 104.5Q517 56 447 28Q377 0 294 0H89V309H20ZM225 604V424H390V309H225V126H278Q338 126 386 144Q434 162 467.5 194.5Q501 227 519.5 270.5Q538 314 538 365Q538 418 522 461.5Q506 505 473 537Q440 569 390 586.5Q340 604 272 604Z" glyph-name="Eth" horiz-adv-x="695" unicode="&#208;" /><glyph d="M31 517H122Q125 565 144.5 605.5Q164 646 196.5 676Q229 706 273 723Q317 740 369 740Q428 740 475 719Q522 698 555 662L453 571Q438 587 417 596.5Q396 606 369 606Q321 606 293.5 580.5Q266 555 259 517H483L465 411H257V319H451L434 213H258Q264 174 290.5 149.5Q317 125 366 125Q398 125 417.5 138.5Q437 152 451 171L573 91Q542 44 491 17Q440 -10 367 -10Q309 -10 264 6.5Q219 23 188 52Q157 81 140 122.5Q123 164 121 213H31V319H121V411H31Z" glyph-name="Euro" horiz-adv-x="588" unicode="&#8364;" /><glyph d="M35 517H130Q151 567 185.5 608.5Q220 650 265 679Q310 708 364.5 724Q419 740 479 740Q581 740 661.5 696Q742 652 794 578L687 493Q658 549 602 578.5Q546 608 477 608Q416 608 367 584Q318 560 286 517H583L553 407H245Q242 396 241 386Q240 376 240 365Q240 345 245 323H530L500 213H288Q319 170 366.5 146.5Q414 123 473 123Q555 123 606 158Q657 193 685 257L806 190Q755 99 675.5 44.5Q596 -10 480 -10Q419 -10 364.5 6.5Q310 23 265 52Q220 81 186 122.5Q152 164 131 213H35V323H103Q101 334 101 344Q101 354 101 365Q101 376 101 386Q101 396 103 407H35Z" glyph-name="Euro.LP" horiz-adv-x="811" unicode="&#58657;" /><glyph d="M31 517H122Q125 565 144.5 605.5Q164 646 196.5 676Q229 706 273 723Q317 740 369 740Q428 740 475 719Q522 698 555 662L453 571Q438 587 417 596.5Q396 606 369 606Q321 606 293.5 580.5Q266 555 259 517H483L465 411H257V319H451L434 213H258Q264 174 290.5 149.5Q317 125 366 125Q398 125 417.5 138.5Q437 152 451 171L573 91Q542 44 491 17Q440 -10 367 -10Q309 -10 264 6.5Q219 23 188 52Q157 81 140 122.5Q123 164 121 213H31V319H121V411H31Z" glyph-name="Euro.LT" horiz-adv-x="588" unicode="&#62567;" /><glyph d="M42 730H455V600H178V432H455V302H178V0H42Z" glyph-name="F" horiz-adv-x="491" unicode="F" /><glyph d="M401 -10Q316 -10 246 20Q176 50 126 101.5Q76 153 49 221Q22 289 22 365Q22 443 50 511.5Q78 580 127.5 630.5Q177 681 245.5 710.5Q314 740 395 740Q452 740 502 726.5Q552 713 594.5 688Q637 663 670.5 628.5Q704 594 727 553L607 481Q573 544 520.5 576Q468 608 396 608Q345 608 301.5 588.5Q258 569 225.5 536Q193 503 175 459Q157 415 157 365Q157 314 175 270Q193 226 225.5 193Q258 160 303 141Q348 122 401 122Q483 122 537.5 165Q592 208 612 280H379V410H758V356Q758 282 733 215.5Q708 149 661.5 99Q615 49 549 19.5Q483 -10 401 -10Z" glyph-name="G" horiz-adv-x="780" unicode="G" /><glyph d="M401 -10Q316 -10 246 20Q176 50 126 101.5Q76 153 49 221Q22 289 22 365Q22 443 50 511.5Q78 580 127.5 630.5Q177 681 245.5 710.5Q314 740 395 740Q452 740 502 726.5Q552 713 594.5 688Q637 663 670.5 628.5Q704 594 727 553L607 481Q573 544 520.5 576Q468 608 396 608Q345 608 301.5 588.5Q258 569 225.5 536Q193 503 175 459Q157 415 157 365Q157 314 175 270Q193 226 225.5 193Q258 160 303 141Q348 122 401 122Q483 122 537.5 165Q592 208 612 280H379V410H758V356Q758 282 733 215.5Q708 149 661.5 99Q615 49 549 19.5Q483 -10 401 -10ZM394 775Q353 775 322.5 788Q292 801 272 823.5Q252 846 242.5 877.5Q233 909 233 945H318Q318 897 337.5 874Q357 851 394 849Q430 851 450 874Q470 897 470 945H556Q556 909 545 877.5Q534 846 513 823.5Q492 801 462 788Q432 775 394 775Z" glyph-name="Gbreve" horiz-adv-x="780" unicode="&#286;" /><glyph d="M401 -10Q316 -10 246 20Q176 50 126 101.5Q76 153 49 221Q22 289 22 365Q22 443 50 511.5Q78 580 127.5 630.5Q177 681 245.5 710.5Q314 740 395 740Q452 740 502 726.5Q552 713 594.5 688Q637 663 670.5 628.5Q704 594 727 553L607 481Q573 544 520.5 576Q468 608 396 608Q345 608 301.5 588.5Q258 569 225.5 536Q193 503 175 459Q157 415 157 365Q157 314 175 270Q193 226 225.5 193Q258 160 303 141Q348 122 401 122Q483 122 537.5 165Q592 208 612 280H379V410H758V356Q758 282 733 215.5Q708 149 661.5 99Q615 49 549 19.5Q483 -10 401 -10ZM353 950H437L556 780H454L395 869L336 780H234Z" glyph-name="Gcircumflex" horiz-adv-x="780" unicode="&#284;" /><glyph d="M401 -10Q316 -10 246 20Q176 50 126 101.5Q76 153 49 221Q22 289 22 365Q22 443 50 511.5Q78 580 127.5 630.5Q177 681 245.5 710.5Q314 740 395 740Q452 740 502 726.5Q552 713 594.5 688Q637 663 670.5 628.5Q704 594 727 553L607 481Q573 544 520.5 576Q468 608 396 608Q345 608 301.5 588.5Q258 569 225.5 536Q193 503 175 459Q157 415 157 365Q157 314 175 270Q193 226 225.5 193Q258 160 303 141Q348 122 401 122Q483 122 537.5 165Q592 208 612 280H379V410H758V356Q758 282 733 215.5Q708 149 661.5 99Q615 49 549 19.5Q483 -10 401 -10ZM314 -250 348 -46H467L397 -250Z" glyph-name="Gcommaaccent" horiz-adv-x="780" unicode="&#290;" /><glyph d="M401 -10Q316 -10 246 20Q176 50 126 101.5Q76 153 49 221Q22 289 22 365Q22 443 50 511.5Q78 580 127.5 630.5Q177 681 245.5 710.5Q314 740 395 740Q452 740 502 726.5Q552 713 594.5 688Q637 663 670.5 628.5Q704 594 727 553L607 481Q573 544 520.5 576Q468 608 396 608Q345 608 301.5 588.5Q258 569 225.5 536Q193 503 175 459Q157 415 157 365Q157 314 175 270Q193 226 225.5 193Q258 160 303 141Q348 122 401 122Q483 122 537.5 165Q592 208 612 280H379V410H758V356Q758 282 733 215.5Q708 149 661.5 99Q615 49 549 19.5Q483 -10 401 -10ZM319 849Q319 884 340.5 906Q362 928 398 928Q435 928 456 906Q477 884 477 849Q477 814 456 792.5Q435 771 398 771Q360 771 339.5 792.5Q319 814 319 849Z" glyph-name="Gdotaccent" horiz-adv-x="780" unicode="&#288;" /><glyph d="M458 301H178V0H42V730H178V431H458V730H594V0H458Z" glyph-name="H" horiz-adv-x="636" unicode="H" /><glyph d="M14 632H71V730H207V632H487V730H623V632H680V529H623V0H487V301H207V0H71V529H14ZM207 431H487V529H207Z" glyph-name="Hbar" horiz-adv-x="695" unicode="&#294;" /><glyph d="M458 301H178V0H42V730H178V431H458V730H594V0H458ZM275 950H359L478 780H376L317 869L258 780H156Z" glyph-name="Hcircumflex" horiz-adv-x="636" unicode="&#292;" /><glyph d="M47 730H183V0H47Z" glyph-name="I" horiz-adv-x="230" unicode="I" /><glyph d="M237 133H245Q268 133 282 135.5Q296 138 304 146Q312 154 315 168Q318 182 318 206V730H454V210Q454 152 446 111.5Q438 71 417 46.5Q396 22 358 11Q320 0 260 0H237ZM41 730H177V0H41Z" glyph-name="IJ" horiz-adv-x="495" unicode="&#306;" /><glyph d="M47 730H183V0H47ZM185 950H311L161 780H70Z" glyph-name="Iacute" horiz-adv-x="230" unicode="&#205;" /><glyph d="M47 730H183V0H47ZM113 775Q72 775 41.5 788Q11 801 -9 823.5Q-29 846 -38.5 877.5Q-48 909 -48 945H37Q37 897 56.5 874Q76 851 113 849Q149 851 169 874Q189 897 189 945H275Q275 909 264 877.5Q253 846 232 823.5Q211 801 181 788Q151 775 113 775Z" glyph-name="Ibreve" horiz-adv-x="230" unicode="&#300;" /><glyph d="M47 730H183V0H47ZM73 950H157L276 780H174L115 869L56 780H-46Z" glyph-name="Icircumflex" horiz-adv-x="230" unicode="&#206;" /><glyph d="M152 918H286V781H152ZM-55 918H79V781H-55ZM47 730H183V0H47Z" glyph-name="Idieresis" horiz-adv-x="230" unicode="&#207;" /><glyph d="M47 730H183V0H47ZM34 849Q34 884 55.5 906Q77 928 113 928Q150 928 171 906Q192 884 192 849Q192 814 171 792.5Q150 771 113 771Q75 771 54.5 792.5Q34 814 34 849Z" glyph-name="Idotaccent" horiz-adv-x="230" unicode="&#304;" /><glyph d="M47 730H183V0H47ZM-80 950H47L161 780H70Z" glyph-name="Igrave" horiz-adv-x="230" unicode="&#204;" /><glyph d="M47 730H183V0H47ZM-17 866H247V780H-17Z" glyph-name="Imacron" horiz-adv-x="230" unicode="&#298;" /><glyph d="M107 -229Q49 -229 12.5 -198.5Q-24 -168 -25 -121Q-26 -82 -7 -51.5Q12 -21 47 6V730H183V0H179Q122 -35 98 -64Q74 -93 74 -111Q74 -128 84.5 -136Q95 -144 112 -144Q127 -144 139.5 -135Q152 -126 162 -114L241 -169Q215 -196 183 -212.5Q151 -229 107 -229Z" glyph-name="Iogonek" horiz-adv-x="230" unicode="&#302;" /><glyph d="M47 730H183V0H47ZM-47 780Q-47 841 -19.5 878Q8 915 57 915Q82 915 100 907.5Q118 900 134 891Q148 881 160.5 873.5Q173 866 186 866Q214 866 214 911H292Q292 849 266 812.5Q240 776 187 776Q158 776 137.5 786.5Q117 797 100 807Q89 814 78.5 819Q68 824 57 824Q31 824 31 780Z" glyph-name="Itilde" horiz-adv-x="230" unicode="&#296;" /><glyph d="M247 -10Q159 -10 98 34.5Q37 79 19 155L153 199Q161 164 185.5 140.5Q210 117 245 117Q287 117 305.5 144.5Q324 172 324 210V730H460V222Q460 112 404.5 51Q349 -10 247 -10Z" glyph-name="J" horiz-adv-x="501" unicode="J" /><glyph d="M247 -10Q159 -10 98 34.5Q37 79 19 155L153 199Q161 164 185.5 140.5Q210 117 245 117Q287 117 305.5 144.5Q324 172 324 210V730H460V222Q460 112 404.5 51Q349 -10 247 -10ZM345 950H429L548 780H446L387 869L328 780H226Z" glyph-name="Jcircumflex" horiz-adv-x="501" unicode="&#308;" /><glyph d="M257 351 178 253V0H42V730H178V431L419 730H584L353 446L605 0H450Z" glyph-name="K" horiz-adv-x="618" unicode="K" /><glyph d="M257 351 178 253V0H42V730H178V431L419 730H584L353 446L605 0H450ZM223 -250 257 -46H376L306 -250Z" glyph-name="Kcommaaccent" horiz-adv-x="618" unicode="&#310;" /><glyph d="M42 730H178V130H445V0H42Z" glyph-name="L" horiz-adv-x="481" unicode="L" /><glyph d="M42 730H178V130H445V0H42ZM177 950H303L153 780H62Z" glyph-name="Lacute" horiz-adv-x="481" unicode="&#313;" /><glyph d="M42 730H178V130H445V0H42ZM258 730H367L316 559H233Z" glyph-name="Lcaron" horiz-adv-x="481" unicode="&#317;" /><glyph d="M42 730H178V130H445V0H42ZM150 -250 184 -46H303L233 -250Z" glyph-name="Lcommaaccent" horiz-adv-x="481" unicode="&#315;" /><glyph d="M42 730H178V130H445V0H42ZM298 360Q298 395 319.5 417Q341 439 377 439Q414 439 435 417Q456 395 456 360Q456 325 435 303.5Q414 282 377 282Q339 282 318.5 303.5Q298 325 298 360Z" glyph-name="Ldot" horiz-adv-x="481" unicode="&#319;" /><glyph d="M17 381 86 403V730H222V446L377 496V399L222 350V130H489V0H86V307L17 285Z" glyph-name="Lslash" horiz-adv-x="525" unicode="&#321;" /><glyph d="M42 730H177L398 423L628 730H757V0H621V512L397 210L178 507V0H42Z" glyph-name="M" horiz-adv-x="798" unicode="M" /><glyph d="M42 730H196L512 233V730H648V0H503L178 513V0H42Z" glyph-name="N" horiz-adv-x="690" unicode="N" /><glyph d="M42 730H196L512 233V730H648V0H503L178 513V0H42ZM422 950H548L398 780H307Z" glyph-name="Nacute" horiz-adv-x="690" unicode="&#323;" /><glyph d="M42 730H196L512 233V730H648V0H503L178 513V0H42ZM186 950H288L347 861L406 950H508L389 780H305Z" glyph-name="Ncaron" horiz-adv-x="690" unicode="&#327;" /><glyph d="M42 730H196L512 233V730H648V0H503L178 513V0H42ZM249 -250 283 -46H402L332 -250Z" glyph-name="Ncommaaccent" horiz-adv-x="690" unicode="&#325;" /><glyph d="M42 730H196L512 233V730H648V0H503L178 513V0H42ZM174 780Q174 841 201.5 878Q229 915 278 915Q303 915 321 907.5Q339 900 355 891Q369 881 381.5 873.5Q394 866 407 866Q435 866 435 911H513Q513 849 487 812.5Q461 776 408 776Q379 776 358.5 786.5Q338 797 321 807Q310 814 299.5 819Q289 824 278 824Q252 824 252 780Z" glyph-name="Ntilde" horiz-adv-x="690" unicode="&#209;" /><glyph d="M395 -10Q317 -10 249 19.5Q181 49 130.5 99.5Q80 150 51 218.5Q22 287 22 365Q22 443 51 511Q80 579 130.5 630Q181 681 249 710.5Q317 740 395 740Q473 740 541 710.5Q609 681 660 630Q711 579 740 511Q769 443 769 365Q769 287 740 218.5Q711 150 660 99.5Q609 49 541 19.5Q473 -10 395 -10ZM395 124Q445 124 488.5 143Q532 162 564.5 194.5Q597 227 615.5 271Q634 315 634 365Q634 415 615.5 459Q597 503 564.5 535.5Q532 568 488.5 587Q445 606 395 606Q345 606 301.5 587Q258 568 226 535.5Q194 503 175.5 459Q157 415 157 365Q157 315 175.5 271Q194 227 226 194.5Q258 162 301.5 143Q345 124 395 124Z" glyph-name="O" horiz-adv-x="790" unicode="O" /><glyph d="M634 83Q588 39 527.5 14.5Q467 -10 395 -10Q317 -10 249 19.5Q181 49 130.5 99.5Q80 150 51 218.5Q22 287 22 365Q22 443 51 511Q80 579 130.5 630Q181 681 249 710.5Q317 740 395 740Q467 740 527.5 715Q588 690 634 646V730H1067V600H770V432H1067V302H770V130H1067V0H634ZM395 124Q443 124 485.5 142Q528 160 560.5 191Q593 222 612.5 264.5Q632 307 634 355V375Q632 423 612.5 465Q593 507 560.5 538.5Q528 570 485.5 588Q443 606 395 606Q345 606 301.5 587Q258 568 226 535.5Q194 503 175.5 459Q157 415 157 365Q157 315 175.5 271Q194 227 226 194.5Q258 162 301.5 143Q345 124 395 124Z" glyph-name="OE" horiz-adv-x="1101" unicode="&#338;" /><glyph d="M458 950H584L434 780H343ZM395 -10Q317 -10 249 19.5Q181 49 130.5 99.5Q80 150 51 218.5Q22 287 22 365Q22 443 51 511Q80 579 130.5 630Q181 681 249 710.5Q317 740 395 740Q473 740 541 710.5Q609 681 660 630Q711 579 740 511Q769 443 769 365Q769 287 740 218.5Q711 150 660 99.5Q609 49 541 19.5Q473 -10 395 -10ZM395 124Q445 124 488.5 143Q532 162 564.5 194.5Q597 227 615.5 271Q634 315 634 365Q634 415 615.5 459Q597 503 564.5 535.5Q532 568 488.5 587Q445 606 395 606Q345 606 301.5 587Q258 568 226 535.5Q194 503 175.5 459Q157 415 157 365Q157 315 175.5 271Q194 227 226 194.5Q258 162 301.5 143Q345 124 395 124Z" glyph-name="Oacute" horiz-adv-x="790" unicode="&#211;" /><glyph d="M395 -10Q317 -10 249 19.5Q181 49 130.5 99.5Q80 150 51 218.5Q22 287 22 365Q22 443 51 511Q80 579 130.5 630Q181 681 249 710.5Q317 740 395 740Q473 740 541 710.5Q609 681 660 630Q711 579 740 511Q769 443 769 365Q769 287 740 218.5Q711 150 660 99.5Q609 49 541 19.5Q473 -10 395 -10ZM395 124Q445 124 488.5 143Q532 162 564.5 194.5Q597 227 615.5 271Q634 315 634 365Q634 415 615.5 459Q597 503 564.5 535.5Q532 568 488.5 587Q445 606 395 606Q345 606 301.5 587Q258 568 226 535.5Q194 503 175.5 459Q157 415 157 365Q157 315 175.5 271Q194 227 226 194.5Q258 162 301.5 143Q345 124 395 124ZM388 775Q347 775 316.5 788Q286 801 266 823.5Q246 846 236.5 877.5Q227 909 227 945H312Q312 897 331.5 874Q351 851 388 849Q424 851 444 874Q464 897 464 945H550Q550 909 539 877.5Q528 846 507 823.5Q486 801 456 788Q426 775 388 775Z" glyph-name="Obreve" horiz-adv-x="790" unicode="&#334;" /><glyph d="M395 -10Q317 -10 249 19.5Q181 49 130.5 99.5Q80 150 51 218.5Q22 287 22 365Q22 443 51 511Q80 579 130.5 630Q181 681 249 710.5Q317 740 395 740Q473 740 541 710.5Q609 681 660 630Q711 579 740 511Q769 443 769 365Q769 287 740 218.5Q711 150 660 99.5Q609 49 541 19.5Q473 -10 395 -10ZM395 124Q445 124 488.5 143Q532 162 564.5 194.5Q597 227 615.5 271Q634 315 634 365Q634 415 615.5 459Q597 503 564.5 535.5Q532 568 488.5 587Q445 606 395 606Q345 606 301.5 587Q258 568 226 535.5Q194 503 175.5 459Q157 415 157 365Q157 315 175.5 271Q194 227 226 194.5Q258 162 301.5 143Q345 124 395 124ZM349 950H433L552 780H450L391 869L332 780H230Z" glyph-name="Ocircumflex" horiz-adv-x="790" unicode="&#212;" /><glyph d="M221 849Q221 881 240.5 901Q260 921 293 921Q327 921 346 901Q365 881 365 849Q365 817 346 797.5Q327 778 293 778Q259 778 240 797.5Q221 817 221 849ZM412 849Q412 881 431.5 901Q451 921 484 921Q517 921 536.5 901Q556 881 556 849Q556 817 536.5 797.5Q517 778 484 778Q449 778 430.5 797.5Q412 817 412 849ZM395 -10Q317 -10 249 19.5Q181 49 130.5 99.5Q80 150 51 218.5Q22 287 22 365Q22 443 51 511Q80 579 130.5 630Q181 681 249 710.5Q317 740 395 740Q473 740 541 710.5Q609 681 660 630Q711 579 740 511Q769 443 769 365Q769 287 740 218.5Q711 150 660 99.5Q609 49 541 19.5Q473 -10 395 -10ZM395 124Q445 124 488.5 143Q532 162 564.5 194.5Q597 227 615.5 271Q634 315 634 365Q634 415 615.5 459Q597 503 564.5 535.5Q532 568 488.5 587Q445 606 395 606Q345 606 301.5 587Q258 568 226 535.5Q194 503 175.5 459Q157 415 157 365Q157 315 175.5 271Q194 227 226 194.5Q258 162 301.5 143Q345 124 395 124Z" glyph-name="Odieresis" horiz-adv-x="790" unicode="&#214;" /><glyph d="M395 -10Q317 -10 249 19.5Q181 49 130.5 99.5Q80 150 51 218.5Q22 287 22 365Q22 443 51 511Q80 579 130.5 630Q181 681 249 710.5Q317 740 395 740Q473 740 541 710.5Q609 681 660 630Q711 579 740 511Q769 443 769 365Q769 287 740 218.5Q711 150 660 99.5Q609 49 541 19.5Q473 -10 395 -10ZM395 124Q445 124 488.5 143Q532 162 564.5 194.5Q597 227 615.5 271Q634 315 634 365Q634 415 615.5 459Q597 503 564.5 535.5Q532 568 488.5 587Q445 606 395 606Q345 606 301.5 587Q258 568 226 535.5Q194 503 175.5 459Q157 415 157 365Q157 315 175.5 271Q194 227 226 194.5Q258 162 301.5 143Q345 124 395 124ZM199 950H326L440 780H349Z" glyph-name="Ograve" horiz-adv-x="790" unicode="&#210;" /><glyph d="M370 950H490L340 780H256ZM536 950H656L506 780H422ZM395 -10Q317 -10 249 19.5Q181 49 130.5 99.5Q80 150 51 218.5Q22 287 22 365Q22 443 51 511Q80 579 130.5 630Q181 681 249 710.5Q317 740 395 740Q473 740 541 710.5Q609 681 660 630Q711 579 740 511Q769 443 769 365Q769 287 740 218.5Q711 150 660 99.5Q609 49 541 19.5Q473 -10 395 -10ZM395 124Q445 124 488.5 143Q532 162 564.5 194.5Q597 227 615.5 271Q634 315 634 365Q634 415 615.5 459Q597 503 564.5 535.5Q532 568 488.5 587Q445 606 395 606Q345 606 301.5 587Q258 568 226 535.5Q194 503 175.5 459Q157 415 157 365Q157 315 175.5 271Q194 227 226 194.5Q258 162 301.5 143Q345 124 395 124Z" glyph-name="Ohungarumlaut" horiz-adv-x="790" unicode="&#336;" /><glyph d="M258 866H522V780H258ZM395 -10Q317 -10 249 19.5Q181 49 130.5 99.5Q80 150 51 218.5Q22 287 22 365Q22 443 51 511Q80 579 130.5 630Q181 681 249 710.5Q317 740 395 740Q473 740 541 710.5Q609 681 660 630Q711 579 740 511Q769 443 769 365Q769 287 740 218.5Q711 150 660 99.5Q609 49 541 19.5Q473 -10 395 -10ZM395 124Q445 124 488.5 143Q532 162 564.5 194.5Q597 227 615.5 271Q634 315 634 365Q634 415 615.5 459Q597 503 564.5 535.5Q532 568 488.5 587Q445 606 395 606Q345 606 301.5 587Q258 568 226 535.5Q194 503 175.5 459Q157 415 157 365Q157 315 175.5 271Q194 227 226 194.5Q258 162 301.5 143Q345 124 395 124Z" glyph-name="Omacron" horiz-adv-x="790" unicode="&#332;" /><glyph d="M116 114Q71 165 46.5 228.5Q22 292 22 365Q22 443 51 511Q80 579 130.5 630Q181 681 249 710.5Q317 740 395 740Q446 740 492.5 726.5Q539 713 581 690L614 730H771L676 613Q720 563 744.5 500Q769 437 769 365Q769 287 740 218.5Q711 150 660 99.5Q609 49 541 19.5Q473 -10 395 -10Q344 -10 298 2.5Q252 15 211 38L181 0H24ZM157 365Q157 324 169 287.5Q181 251 203 221L495 583Q472 594 447 600Q422 606 395 606Q345 606 301.5 587Q258 568 226 535.5Q194 503 175.5 459Q157 415 157 365ZM395 124Q445 124 488.5 143Q532 162 564.5 194.5Q597 227 615.5 271Q634 315 634 365Q634 404 622 440Q610 476 589 505L298 144Q343 124 395 124Z" glyph-name="Oslash" horiz-adv-x="790" unicode="&#216;" /><glyph d="M116 114Q71 165 46.5 228.5Q22 292 22 365Q22 443 51 511Q80 579 130.5 630Q181 681 249 710.5Q317 740 395 740Q446 740 492.5 726.5Q539 713 581 690L614 730H771L676 613Q720 563 744.5 500Q769 437 769 365Q769 287 740 218.5Q711 150 660 99.5Q609 49 541 19.5Q473 -10 395 -10Q344 -10 298 2.5Q252 15 211 38L181 0H24ZM157 365Q157 324 169 287.5Q181 251 203 221L495 583Q472 594 447 600Q422 606 395 606Q345 606 301.5 587Q258 568 226 535.5Q194 503 175.5 459Q157 415 157 365ZM395 124Q445 124 488.5 143Q532 162 564.5 194.5Q597 227 615.5 271Q634 315 634 365Q634 404 622 440Q610 476 589 505L298 144Q343 124 395 124ZM448 950H574L424 780H333Z" glyph-name="Oslashacute" horiz-adv-x="790" unicode="&#510;" /><glyph d="M395 -10Q317 -10 249 19.5Q181 49 130.5 99.5Q80 150 51 218.5Q22 287 22 365Q22 443 51 511Q80 579 130.5 630Q181 681 249 710.5Q317 740 395 740Q473 740 541 710.5Q609 681 660 630Q711 579 740 511Q769 443 769 365Q769 287 740 218.5Q711 150 660 99.5Q609 49 541 19.5Q473 -10 395 -10ZM395 124Q445 124 488.5 143Q532 162 564.5 194.5Q597 227 615.5 271Q634 315 634 365Q634 415 615.5 459Q597 503 564.5 535.5Q532 568 488.5 587Q445 606 395 606Q345 606 301.5 587Q258 568 226 535.5Q194 503 175.5 459Q157 415 157 365Q157 315 175.5 271Q194 227 226 194.5Q258 162 301.5 143Q345 124 395 124ZM220 780Q220 841 247.5 878Q275 915 324 915Q349 915 367 907.5Q385 900 401 891Q415 881 427.5 873.5Q440 866 453 866Q481 866 481 911H559Q559 849 533 812.5Q507 776 454 776Q425 776 404.5 786.5Q384 797 367 807Q356 814 345.5 819Q335 824 324 824Q298 824 298 780Z" glyph-name="Otilde" horiz-adv-x="790" unicode="&#213;" /><glyph d="M36 730H173V703Q140 681 111.5 654Q83 627 63 593H36ZM727 593Q707 627 678.5 654Q650 681 617 703V730H754V593ZM395 -10Q317 -10 249 19.5Q181 49 130.5 99.5Q80 150 51 218.5Q22 287 22 365Q22 443 51 511Q80 579 130.5 630Q181 681 249 710.5Q317 740 395 740Q473 740 541 710.5Q609 681 660 630Q711 579 740 511Q769 443 769 365Q769 287 740 218.5Q711 150 660 99.5Q609 49 541 19.5Q473 -10 395 -10ZM395 124Q445 124 488.5 143Q532 162 564.5 194.5Q597 227 615.5 271Q634 315 634 365Q634 415 615.5 459Q597 503 564.5 535.5Q532 568 488.5 587Q445 606 395 606Q345 606 301.5 587Q258 568 226 535.5Q194 503 175.5 459Q157 415 157 365Q157 315 175.5 271Q194 227 226 194.5Q258 162 301.5 143Q345 124 395 124Z" glyph-name="Oumlaut" horiz-adv-x="790" unicode="&#61815;" /><glyph d="M42 730H292Q349 730 397 709.5Q445 689 480 654Q515 619 535 571.5Q555 524 555 470Q555 416 535 368Q515 320 480 285Q445 250 396.5 229.5Q348 209 291 209H178V0H42ZM178 604V335H282Q312 335 337 345.5Q362 356 380 374.5Q398 393 408 417.5Q418 442 418 470Q418 498 408 522.5Q398 547 380 565Q362 583 337 593.5Q312 604 282 604Z" glyph-name="P" horiz-adv-x="581" unicode="P" /><glyph d="M342 359H505L597 239Q614 267 624 298.5Q634 330 634 365Q634 415 615.5 459Q597 503 564.5 535.5Q532 568 488.5 587Q445 606 395 606Q345 606 301.5 587Q258 568 226 535.5Q194 503 175.5 459Q157 415 157 365Q157 315 175.5 271Q194 227 226 194.5Q258 162 301.5 143Q345 124 395 124Q431 124 466 135L551 24Q477 -10 395 -10Q317 -10 249 19.5Q181 49 130.5 99.5Q80 150 51 218.5Q22 287 22 365Q22 443 51 511Q80 579 130.5 630Q181 681 249 710.5Q317 740 395 740Q473 740 541 710.5Q609 681 660 630Q711 579 740 511Q769 443 769 365Q769 296 746.5 236Q724 176 685 127L783 0H617Z" glyph-name="Q" horiz-adv-x="790" unicode="Q" /><glyph d="M42 0V730H276Q341 730 391.5 711.5Q442 693 477 659.5Q512 626 530.5 579.5Q549 533 549 476Q549 410 517.5 352.5Q486 295 426 263L572 0H417L300 223H178V0ZM264 348Q306 348 334.5 358.5Q363 369 380.5 387.5Q398 406 405.5 430Q413 454 413 481Q413 537 377.5 570Q342 603 264 603H178V348Z" glyph-name="R" horiz-adv-x="584" unicode="R" /><glyph d="M40 0V730H274Q340 730 391 711.5Q442 693 477 659.5Q512 626 530.5 578.5Q549 531 549 474Q549 408 518.5 351Q488 294 428 262L572 0H414L301 220H179V0ZM262 348Q304 348 332.5 358.5Q361 369 378.5 387Q396 405 403 429Q410 453 410 480Q410 535 375 567.5Q340 600 262 600H179V348Z" glyph-name="R.alt" horiz-adv-x="583" unicode="&#57665;" /><glyph d="M42 0V730H276Q341 730 391.5 711.5Q442 693 477 659.5Q512 626 530.5 579.5Q549 533 549 476Q549 410 517.5 352.5Q486 295 426 263L572 0H417L300 223H178V0ZM264 348Q306 348 334.5 358.5Q363 369 380.5 387.5Q398 406 405.5 430Q413 454 413 481Q413 537 377.5 570Q342 603 264 603H178V348ZM311 950H437L287 780H196Z" glyph-name="Racute" horiz-adv-x="584" unicode="&#340;" /><glyph d="M40 0V730H274Q340 730 391 711.5Q442 693 477 659.5Q512 626 530.5 578.5Q549 531 549 474Q549 408 518.5 351Q488 294 428 262L572 0H414L301 220H179V0ZM262 348Q304 348 332.5 358.5Q361 369 378.5 387Q396 405 403 429Q410 453 410 480Q410 535 375 567.5Q340 600 262 600H179V348ZM311 950H437L287 780H196Z" glyph-name="Racute.alt" horiz-adv-x="583" unicode="&#57666;" /><glyph d="M42 0V730H276Q341 730 391.5 711.5Q442 693 477 659.5Q512 626 530.5 579.5Q549 533 549 476Q549 410 517.5 352.5Q486 295 426 263L572 0H417L300 223H178V0ZM264 348Q306 348 334.5 358.5Q363 369 380.5 387.5Q398 406 405.5 430Q413 454 413 481Q413 537 377.5 570Q342 603 264 603H178V348ZM131 950H233L292 861L351 950H453L334 780H250Z" glyph-name="Rcaron" horiz-adv-x="584" unicode="&#344;" /><glyph d="M40 0V730H274Q340 730 391 711.5Q442 693 477 659.5Q512 626 530.5 578.5Q549 531 549 474Q549 408 518.5 351Q488 294 428 262L572 0H414L301 220H179V0ZM262 348Q304 348 332.5 358.5Q361 369 378.5 387Q396 405 403 429Q410 453 410 480Q410 535 375 567.5Q340 600 262 600H179V348ZM131 950H233L292 861L351 950H453L334 780H250Z" glyph-name="Rcaron.alt" horiz-adv-x="583" unicode="&#57667;" /><glyph d="M42 0V730H276Q341 730 391.5 711.5Q442 693 477 659.5Q512 626 530.5 579.5Q549 533 549 476Q549 410 517.5 352.5Q486 295 426 263L572 0H417L300 223H178V0ZM264 348Q306 348 334.5 358.5Q363 369 380.5 387.5Q398 406 405.5 430Q413 454 413 481Q413 537 377.5 570Q342 603 264 603H178V348ZM207 -281 241 -77H360L290 -281Z" glyph-name="Rcommaaccent" horiz-adv-x="584" unicode="&#342;" /><glyph d="M40 0V730H274Q340 730 391 711.5Q442 693 477 659.5Q512 626 530.5 578.5Q549 531 549 474Q549 408 518.5 351Q488 294 428 262L572 0H414L301 220H179V0ZM262 348Q304 348 332.5 358.5Q361 369 378.5 387Q396 405 403 429Q410 453 410 480Q410 535 375 567.5Q340 600 262 600H179V348ZM207 -281 241 -77H360L290 -281Z" glyph-name="Rcommaaccent.alt" horiz-adv-x="583" unicode="&#57670;" /><glyph d="M288 -10Q189 -10 121 27.5Q53 65 3 121L127 219Q155 171 196 145.5Q237 120 287 120Q341 120 369.5 150Q398 180 398 218Q398 241 385 257Q372 273 351 284.5Q330 296 302.5 305Q275 314 246 323Q209 335 172 349Q135 363 105.5 386.5Q76 410 57.5 444.5Q39 479 39 531Q39 575 57 613Q75 651 107.5 679.5Q140 708 184.5 724Q229 740 281 740Q325 740 360.5 732Q396 724 425.5 710Q455 696 479.5 676.5Q504 657 526 634L414 549Q367 619 282 619Q232 619 206 595Q180 571 180 536Q180 514 192 499Q204 484 224.5 472.5Q245 461 272 452Q299 443 329 433Q366 421 403.5 405.5Q441 390 471.5 365.5Q502 341 521 305.5Q540 270 540 217Q540 174 523 133Q506 92 474 60.5Q442 29 395 9.5Q348 -10 288 -10Z" glyph-name="S" horiz-adv-x="563" unicode="S" /><glyph d="M337 950H463L313 780H222ZM288 -10Q189 -10 121 27.5Q53 65 3 121L127 219Q155 171 196 145.5Q237 120 287 120Q341 120 369.5 150Q398 180 398 218Q398 241 385 257Q372 273 351 284.5Q330 296 302.5 305Q275 314 246 323Q209 335 172 349Q135 363 105.5 386.5Q76 410 57.5 444.5Q39 479 39 531Q39 575 57 613Q75 651 107.5 679.5Q140 708 184.5 724Q229 740 281 740Q325 740 360.5 732Q396 724 425.5 710Q455 696 479.5 676.5Q504 657 526 634L414 549Q367 619 282 619Q232 619 206 595Q180 571 180 536Q180 514 192 499Q204 484 224.5 472.5Q245 461 272 452Q299 443 329 433Q366 421 403.5 405.5Q441 390 471.5 365.5Q502 341 521 305.5Q540 270 540 217Q540 174 523 133Q506 92 474 60.5Q442 29 395 9.5Q348 -10 288 -10Z" glyph-name="Sacute" horiz-adv-x="563" unicode="&#346;" /><glyph d="M288 -10Q189 -10 121 27.5Q53 65 3 121L127 219Q155 171 196 145.5Q237 120 287 120Q341 120 369.5 150Q398 180 398 218Q398 241 385 257Q372 273 351 284.5Q330 296 302.5 305Q275 314 246 323Q209 335 172 349Q135 363 105.5 386.5Q76 410 57.5 444.5Q39 479 39 531Q39 575 57 613Q75 651 107.5 679.5Q140 708 184.5 724Q229 740 281 740Q325 740 360.5 732Q396 724 425.5 710Q455 696 479.5 676.5Q504 657 526 634L414 549Q367 619 282 619Q232 619 206 595Q180 571 180 536Q180 514 192 499Q204 484 224.5 472.5Q245 461 272 452Q299 443 329 433Q366 421 403.5 405.5Q441 390 471.5 365.5Q502 341 521 305.5Q540 270 540 217Q540 174 523 133Q506 92 474 60.5Q442 29 395 9.5Q348 -10 288 -10ZM122 950H224L283 861L342 950H444L325 780H241Z" glyph-name="Scaron" horiz-adv-x="563" unicode="&#352;" /><glyph d="M273 -240Q233 -240 195.5 -223.5Q158 -207 129 -181L207 -134Q224 -148 240.5 -158Q257 -168 283 -168Q305 -168 321.5 -159Q338 -150 338 -137Q338 -110 280 -110H230V-6Q154 4 99.5 38.5Q45 73 3 121L127 219Q155 171 196 145.5Q237 120 287 120Q341 120 369.5 150Q398 180 398 218Q398 241 385 257Q372 273 351 284.5Q330 296 302.5 305Q275 314 246 323Q209 335 172 349Q135 363 105.5 386.5Q76 410 57.5 444.5Q39 479 39 531Q39 575 57 613Q75 651 107.5 679.5Q140 708 184.5 724Q229 740 281 740Q325 740 360.5 732Q396 724 425.5 710Q455 696 479.5 676.5Q504 657 526 634L414 549Q367 619 282 619Q232 619 206 595Q180 571 180 536Q180 514 192 499Q204 484 224.5 472.5Q245 461 272 452Q299 443 329 433Q366 421 403.5 405.5Q441 390 471.5 365.5Q502 341 521 305.5Q540 270 540 217Q540 176 525 137Q510 98 481 67Q452 36 410 15.5Q368 -5 314 -9V-53Q370 -51 399.5 -73.5Q429 -96 429 -133Q429 -156 417 -176Q405 -196 384 -210Q363 -224 334.5 -232Q306 -240 273 -240Z" glyph-name="Scedilla" horiz-adv-x="563" unicode="&#350;" /><glyph d="M288 -10Q189 -10 121 27.5Q53 65 3 121L127 219Q155 171 196 145.5Q237 120 287 120Q341 120 369.5 150Q398 180 398 218Q398 241 385 257Q372 273 351 284.5Q330 296 302.5 305Q275 314 246 323Q209 335 172 349Q135 363 105.5 386.5Q76 410 57.5 444.5Q39 479 39 531Q39 575 57 613Q75 651 107.5 679.5Q140 708 184.5 724Q229 740 281 740Q325 740 360.5 732Q396 724 425.5 710Q455 696 479.5 676.5Q504 657 526 634L414 549Q367 619 282 619Q232 619 206 595Q180 571 180 536Q180 514 192 499Q204 484 224.5 472.5Q245 461 272 452Q299 443 329 433Q366 421 403.5 405.5Q441 390 471.5 365.5Q502 341 521 305.5Q540 270 540 217Q540 174 523 133Q506 92 474 60.5Q442 29 395 9.5Q348 -10 288 -10ZM235 950H319L438 780H336L277 869L218 780H116Z" glyph-name="Scircumflex" horiz-adv-x="563" unicode="&#348;" /><glyph d="M187 -249 221 -45H340L270 -249ZM288 -10Q189 -10 121 27.5Q53 65 3 121L127 219Q155 171 196 145.5Q237 120 287 120Q341 120 369.5 150Q398 180 398 218Q398 241 385 257Q372 273 351 284.5Q330 296 302.5 305Q275 314 246 323Q209 335 172 349Q135 363 105.5 386.5Q76 410 57.5 444.5Q39 479 39 531Q39 575 57 613Q75 651 107.5 679.5Q140 708 184.5 724Q229 740 281 740Q325 740 360.5 732Q396 724 425.5 710Q455 696 479.5 676.5Q504 657 526 634L414 549Q367 619 282 619Q232 619 206 595Q180 571 180 536Q180 514 192 499Q204 484 224.5 472.5Q245 461 272 452Q299 443 329 433Q366 421 403.5 405.5Q441 390 471.5 365.5Q502 341 521 305.5Q540 270 540 217Q540 174 523 133Q506 92 474 60.5Q442 29 395 9.5Q348 -10 288 -10Z" glyph-name="Scommaaccent" horiz-adv-x="563" unicode="&#536;" /><glyph d="M221 600H26V730H553V600H357V0H221Z" glyph-name="T" horiz-adv-x="579" unicode="T" /><glyph d="M108 433H233V600H38V730H565V600H369V433H489V303H369V0H233V303H108Z" glyph-name="Tbar" horiz-adv-x="598" unicode="&#358;" /><glyph d="M233 600H38V730H565V600H369V0H233ZM135 950H237L296 861L355 950H457L338 780H254Z" glyph-name="Tcaron" horiz-adv-x="598" unicode="&#356;" /><glyph d="M206 -250 240 -46H359L289 -250ZM233 600H38V730H565V600H369V0H233Z" glyph-name="Tcommaaccent" horiz-adv-x="598" unicode="&#354;" /><glyph d="M42 730H178V603H299Q350 603 392.5 585Q435 567 465.5 535.5Q496 504 513.5 461.5Q531 419 531 371Q531 323 513.5 280.5Q496 238 465.5 206.5Q435 175 392 157Q349 139 298 139H178V0H42ZM178 477V265H291Q339 265 367.5 295.5Q396 326 396 371Q396 415 367.5 446Q339 477 291 477Z" glyph-name="Thorn" horiz-adv-x="558" unicode="&#222;" /><glyph d="M304 -10Q247 -10 199 7Q151 24 115.5 57Q80 90 60.5 139Q41 188 41 252V730H177V244Q177 217 186.5 193.5Q196 170 213 153Q230 136 253 126Q276 116 303 116Q330 116 353 126Q376 136 393.5 153Q411 170 421 193.5Q431 217 431 244V730H567V252Q567 188 547 139Q527 90 492 57Q457 24 409 7Q361 -10 304 -10Z" glyph-name="U" horiz-adv-x="608" unicode="U" /><glyph d="M365 950H491L341 780H250ZM304 -10Q247 -10 199 7Q151 24 115.5 57Q80 90 60.5 139Q41 188 41 252V730H177V244Q177 217 186.5 193.5Q196 170 213 153Q230 136 253 126Q276 116 303 116Q330 116 353 126Q376 136 393.5 153Q411 170 421 193.5Q431 217 431 244V730H567V252Q567 188 547 139Q527 90 492 57Q457 24 409 7Q361 -10 304 -10Z" glyph-name="Uacute" horiz-adv-x="608" unicode="&#218;" /><glyph d="M304 -10Q247 -10 199 7Q151 24 115.5 57Q80 90 60.5 139Q41 188 41 252V730H177V244Q177 217 186.5 193.5Q196 170 213 153Q230 136 253 126Q276 116 303 116Q330 116 353 126Q376 136 393.5 153Q411 170 421 193.5Q431 217 431 244V730H567V252Q567 188 547 139Q527 90 492 57Q457 24 409 7Q361 -10 304 -10ZM308 775Q267 775 236.5 788Q206 801 186 823.5Q166 846 156.5 877.5Q147 909 147 945H232Q232 897 251.5 874Q271 851 308 849Q344 851 364 874Q384 897 384 945H470Q470 909 459 877.5Q448 846 427 823.5Q406 801 376 788Q346 775 308 775Z" glyph-name="Ubreve" horiz-adv-x="608" unicode="&#364;" /><glyph d="M304 -10Q247 -10 199 7Q151 24 115.5 57Q80 90 60.5 139Q41 188 41 252V730H177V244Q177 217 186.5 193.5Q196 170 213 153Q230 136 253 126Q276 116 303 116Q330 116 353 126Q376 136 393.5 153Q411 170 421 193.5Q431 217 431 244V730H567V252Q567 188 547 139Q527 90 492 57Q457 24 409 7Q361 -10 304 -10ZM262 950H346L465 780H363L304 869L245 780H143Z" glyph-name="Ucircumflex" horiz-adv-x="608" unicode="&#219;" /><glyph d="M141 849Q141 881 160.5 901Q180 921 213 921Q247 921 266 901Q285 881 285 849Q285 817 266 797.5Q247 778 213 778Q179 778 160 797.5Q141 817 141 849ZM332 849Q332 881 351.5 901Q371 921 404 921Q437 921 456.5 901Q476 881 476 849Q476 817 456.5 797.5Q437 778 404 778Q369 778 350.5 797.5Q332 817 332 849ZM304 -10Q247 -10 199 7Q151 24 115.5 57Q80 90 60.5 139Q41 188 41 252V730H177V244Q177 217 186.5 193.5Q196 170 213 153Q230 136 253 126Q276 116 303 116Q330 116 353 126Q376 136 393.5 153Q411 170 421 193.5Q431 217 431 244V730H567V252Q567 188 547 139Q527 90 492 57Q457 24 409 7Q361 -10 304 -10Z" glyph-name="Udieresis" horiz-adv-x="608" unicode="&#220;" /><glyph d="M304 -10Q247 -10 199 7Q151 24 115.5 57Q80 90 60.5 139Q41 188 41 252V730H177V244Q177 217 186.5 193.5Q196 170 213 153Q230 136 253 126Q276 116 303 116Q330 116 353 126Q376 136 393.5 153Q411 170 421 193.5Q431 217 431 244V730H567V252Q567 188 547 139Q527 90 492 57Q457 24 409 7Q361 -10 304 -10ZM117 950H244L358 780H267Z" glyph-name="Ugrave" horiz-adv-x="608" unicode="&#217;" /><glyph d="M304 -10Q247 -10 199 7Q151 24 115.5 57Q80 90 60.5 139Q41 188 41 252V730H177V244Q177 217 186.5 193.5Q196 170 213 153Q230 136 253 126Q276 116 303 116Q330 116 353 126Q376 136 393.5 153Q411 170 421 193.5Q431 217 431 244V730H567V252Q567 188 547 139Q527 90 492 57Q457 24 409 7Q361 -10 304 -10ZM275 950H395L245 780H161ZM441 950H561L411 780H327Z" glyph-name="Uhungarumlaut" horiz-adv-x="608" unicode="&#368;" /><glyph d="M304 -10Q247 -10 199 7Q151 24 115.5 57Q80 90 60.5 139Q41 188 41 252V730H177V244Q177 217 186.5 193.5Q196 170 213 153Q230 136 253 126Q276 116 303 116Q330 116 353 126Q376 136 393.5 153Q411 170 421 193.5Q431 217 431 244V730H567V252Q567 188 547 139Q527 90 492 57Q457 24 409 7Q361 -10 304 -10ZM172 866H436V780H172Z" glyph-name="Umacron" horiz-adv-x="608" unicode="&#362;" /><glyph d="M316 -222Q251 -222 211.5 -190.5Q172 -159 172 -113Q172 -85 185.5 -58.5Q199 -32 237 -3Q149 14 95 78.5Q41 143 41 252V730H177V244Q177 217 186.5 193.5Q196 170 213 153Q230 136 253 126Q276 116 303 116Q330 116 353 126Q376 136 393.5 153Q411 170 421 193.5Q431 217 431 244V730H567V252Q567 152 522 90.5Q477 29 403 5Q362 -22 336.5 -39.5Q311 -57 297 -69Q283 -81 278 -89.5Q273 -98 273 -108Q273 -125 286 -132Q299 -139 316 -139Q336 -139 349 -130Q362 -121 376 -110L455 -164Q429 -188 390.5 -205Q352 -222 316 -222Z" glyph-name="Uogonek" horiz-adv-x="608" unicode="&#370;" /><glyph d="M302 729Q278 729 257 738Q236 747 220 763Q204 779 195 800Q186 821 186 845Q186 870 195 891.5Q204 913 220 929Q236 945 257 954Q278 963 302 963Q326 963 347.5 954Q369 945 385 929Q401 913 410 891.5Q419 870 419 845Q419 821 410 800Q401 779 385 763Q369 747 347.5 738Q326 729 302 729ZM302 806Q319 806 331 817.5Q343 829 343 845Q343 862 331 874Q319 886 302 886Q285 886 273.5 874Q262 862 262 845Q262 829 273.5 817.5Q285 806 302 806ZM304 -10Q247 -10 199 7Q151 24 115.5 57Q80 90 60.5 139Q41 188 41 252V730H177V244Q177 217 186.5 193.5Q196 170 213 153Q230 136 253 126Q276 116 303 116Q330 116 353 126Q376 136 393.5 153Q411 170 421 193.5Q431 217 431 244V730H567V252Q567 188 547 139Q527 90 492 57Q457 24 409 7Q361 -10 304 -10Z" glyph-name="Uring" horiz-adv-x="608" unicode="&#366;" /><glyph d="M304 -10Q247 -10 199 7Q151 24 115.5 57Q80 90 60.5 139Q41 188 41 252V730H177V244Q177 217 186.5 193.5Q196 170 213 153Q230 136 253 126Q276 116 303 116Q330 116 353 126Q376 136 393.5 153Q411 170 421 193.5Q431 217 431 244V730H567V252Q567 188 547 139Q527 90 492 57Q457 24 409 7Q361 -10 304 -10ZM126 780Q126 841 153.5 878Q181 915 230 915Q255 915 273 907.5Q291 900 307 891Q321 881 333.5 873.5Q346 866 359 866Q387 866 387 911H465Q465 849 439 812.5Q413 776 360 776Q331 776 310.5 786.5Q290 797 273 807Q262 814 251.5 819Q241 824 230 824Q204 824 204 780Z" glyph-name="Utilde" horiz-adv-x="608" unicode="&#360;" /><glyph d="M366 730H471V583H366ZM219 730H324V583H219ZM344 -10Q278 -10 223 9Q168 28 127.5 66.5Q87 105 64.5 161.5Q42 218 42 293V730H177V289Q177 250 189.5 219Q202 188 224.5 165.5Q247 143 277.5 131Q308 119 343 119Q378 119 409 131Q440 143 463 165.5Q486 188 499.5 219Q513 250 513 289V730H648V293Q648 218 625.5 161.5Q603 105 562.5 66.5Q522 28 466 9Q410 -10 344 -10Z" glyph-name="Uumlaut" horiz-adv-x="690" unicode="&#61816;" /><glyph d="M15 730H156L329 208L501 730H642L397 0H260Z" glyph-name="V" horiz-adv-x="657" unicode="V" /><glyph d="M14 730H156L294 219L447 730H581L733 221L870 730H1007L801 0H666L513 515L360 0H222Z" glyph-name="W" horiz-adv-x="1023" unicode="W" /><glyph d="M14 730H156L294 219L447 730H581L733 221L870 730H1007L801 0H666L513 515L360 0H222ZM578 950H704L554 780H463Z" glyph-name="Wacute" horiz-adv-x="1023" unicode="&#7810;" /><glyph d="M14 730H156L294 219L447 730H581L733 221L870 730H1007L801 0H666L513 515L360 0H222ZM469 950H553L672 780H570L511 869L452 780H350Z" glyph-name="Wcircumflex" horiz-adv-x="1023" unicode="&#372;" /><glyph d="M14 730H156L294 219L447 730H581L733 221L870 730H1007L801 0H666L513 515L360 0H222ZM345 849Q345 881 364.5 901Q384 921 417 921Q451 921 470 901Q489 881 489 849Q489 817 470 797.5Q451 778 417 778Q383 778 364 797.5Q345 817 345 849ZM536 849Q536 881 555.5 901Q575 921 608 921Q641 921 660.5 901Q680 881 680 849Q680 817 660.5 797.5Q641 778 608 778Q573 778 554.5 797.5Q536 817 536 849Z" glyph-name="Wdieresis" horiz-adv-x="1023" unicode="&#7812;" /><glyph d="M14 730H156L294 219L447 730H581L733 221L870 730H1007L801 0H666L513 515L360 0H222ZM312 950H439L553 780H462Z" glyph-name="Wgrave" horiz-adv-x="1023" unicode="&#7808;" /><glyph d="M315 251 164 0H11L234 369L16 730H168L315 487L462 730H615L395 369L619 0H467Z" glyph-name="X" horiz-adv-x="630" unicode="X" /><glyph d="M245 346 13 730H163L314 477L466 730H616L381 343V0H245Z" glyph-name="Y" horiz-adv-x="629" unicode="Y" /><glyph d="M245 346 13 730H163L314 477L466 730H616L381 343V0H245ZM379 950H505L355 780H264Z" glyph-name="Yacute" horiz-adv-x="629" unicode="&#221;" /><glyph d="M245 346 13 730H163L314 477L466 730H616L381 343V0H245ZM272 950H356L475 780H373L314 869L255 780H153Z" glyph-name="Ycircumflex" horiz-adv-x="629" unicode="&#374;" /><glyph d="M245 346 13 730H163L314 477L466 730H616L381 343V0H245ZM146 849Q146 881 165.5 901Q185 921 218 921Q252 921 271 901Q290 881 290 849Q290 817 271 797.5Q252 778 218 778Q184 778 165 797.5Q146 817 146 849ZM337 849Q337 881 356.5 901Q376 921 409 921Q442 921 461.5 901Q481 881 481 849Q481 817 461.5 797.5Q442 778 409 778Q374 778 355.5 797.5Q337 817 337 849Z" glyph-name="Ydieresis" horiz-adv-x="629" unicode="&#376;" /><glyph d="M245 346 13 730H163L314 477L466 730H616L381 343V0H245ZM116 950H243L357 780H266Z" glyph-name="Ygrave" horiz-adv-x="629" unicode="&#7922;" /><glyph d="M36 125 359 600H47V730H519V606L196 130H519V0H36Z" glyph-name="Z" horiz-adv-x="556" unicode="Z" /><glyph d="M36 125 359 600H47V730H519V606L196 130H519V0H36ZM337 950H463L313 780H222Z" glyph-name="Zacute" horiz-adv-x="556" unicode="&#377;" /><glyph d="M36 125 359 600H47V730H519V606L196 130H519V0H36ZM122 950H224L283 861L342 950H444L325 780H241Z" glyph-name="Zcaron" horiz-adv-x="556" unicode="&#381;" /><glyph d="M36 125 359 600H47V730H519V606L196 130H519V0H36ZM203 849Q203 884 224.5 906Q246 928 282 928Q319 928 340 906Q361 884 361 849Q361 814 340 792.5Q319 771 282 771Q244 771 223.5 792.5Q203 814 203 849Z" glyph-name="Zdotaccent" horiz-adv-x="556" unicode="&#379;" /><glyph d="M308 -12Q255 -12 203.5 8.5Q152 29 111 68Q70 107 45 163.5Q20 220 20 292Q20 365 44.5 421.5Q69 478 109.5 517Q150 556 202.5 576.5Q255 597 310 597Q368 597 417 575Q466 553 498 515V585H633V0H498V76Q466 35 416 11.5Q366 -12 308 -12ZM330 112Q368 112 400 126Q432 140 455 165Q478 190 491.5 223Q505 256 505 294Q505 331 491.5 364Q478 397 455 421.5Q432 446 400 460Q368 474 330 474Q293 474 260.5 460Q228 446 204 422Q180 398 166.5 365Q153 332 153 294Q153 256 166.5 222.5Q180 189 204 164.5Q228 140 260.5 126Q293 112 330 112Z" glyph-name="a" horiz-adv-x="671" unicode="a" /><glyph d="M190 -10Q108 -10 64.5 28.5Q21 67 21 129Q21 199 66 236.5Q111 274 182 293Q212 301 241.5 308Q271 315 293.5 322.5Q316 330 330 339.5Q344 349 344 363Q344 382 325 393.5Q306 405 268 405Q210 405 185 380Q160 355 160 322V319H39V321Q39 412 97 461Q155 510 262 510Q308 510 347.5 500.5Q387 491 416.5 471.5Q446 452 462.5 421.5Q479 391 479 348V0H350V55Q323 28 282.5 9Q242 -10 190 -10ZM202 101Q232 101 258.5 113Q285 125 305 142Q325 159 337 178.5Q349 198 350 213V242Q347 234 318 222.5Q289 211 244 200Q193 189 171 175Q149 161 149 138Q149 118 164 109.5Q179 101 202 101Z" glyph-name="a.alt" horiz-adv-x="516" unicode="&#58560;" /><glyph d="M225 596H356L562 0H426L395 93H186L155 0H20ZM227 216H354L291 405Z" glyph-name="a.smcp" horiz-adv-x="581" unicode="&#57857;" /><glyph d="M308 -12Q255 -12 203.5 8.5Q152 29 111 68Q70 107 45 163.5Q20 220 20 292Q20 365 44.5 421.5Q69 478 109.5 517Q150 556 202.5 576.5Q255 597 310 597Q368 597 417 575Q466 553 498 515V585H633V0H498V76Q466 35 416 11.5Q366 -12 308 -12ZM330 112Q368 112 400 126Q432 140 455 165Q478 190 491.5 223Q505 256 505 294Q505 331 491.5 364Q478 397 455 421.5Q432 446 400 460Q368 474 330 474Q293 474 260.5 460Q228 446 204 422Q180 398 166.5 365Q153 332 153 294Q153 256 166.5 222.5Q180 189 204 164.5Q228 140 260.5 126Q293 112 330 112ZM386 815H512L362 645H271Z" glyph-name="aacute" horiz-adv-x="671" unicode="&#225;" /><glyph d="M190 -10Q108 -10 64.5 28.5Q21 67 21 129Q21 199 66 236.5Q111 274 182 293Q212 301 241.5 308Q271 315 293.5 322.5Q316 330 330 339.5Q344 349 344 363Q344 382 325 393.5Q306 405 268 405Q210 405 185 380Q160 355 160 322V319H39V321Q39 412 97 461Q155 510 262 510Q308 510 347.5 500.5Q387 491 416.5 471.5Q446 452 462.5 421.5Q479 391 479 348V0H350V55Q323 28 282.5 9Q242 -10 190 -10ZM348 720H474L324 550H233ZM202 101Q232 101 258.5 113Q285 125 305 142Q325 159 337 178.5Q349 198 350 213V242Q347 234 318 222.5Q289 211 244 200Q193 189 171 175Q149 161 149 138Q149 118 164 109.5Q179 101 202 101Z" glyph-name="aacute.alt" horiz-adv-x="516" unicode="&#59537;" /><glyph d="M225 596H356L562 0H426L395 93H186L155 0H20ZM360 816H486L336 646H245ZM227 216H354L291 405Z" glyph-name="aacute.smcp" horiz-adv-x="581" unicode="&#57889;" /><glyph d="M308 -12Q255 -12 203.5 8.5Q152 29 111 68Q70 107 45 163.5Q20 220 20 292Q20 365 44.5 421.5Q69 478 109.5 517Q150 556 202.5 576.5Q255 597 310 597Q368 597 417 575Q466 553 498 515V585H633V0H498V76Q466 35 416 11.5Q366 -12 308 -12ZM330 112Q368 112 400 126Q432 140 455 165Q478 190 491.5 223Q505 256 505 294Q505 331 491.5 364Q478 397 455 421.5Q432 446 400 460Q368 474 330 474Q293 474 260.5 460Q228 446 204 422Q180 398 166.5 365Q153 332 153 294Q153 256 166.5 222.5Q180 189 204 164.5Q228 140 260.5 126Q293 112 330 112ZM323 643Q282 643 251.5 656Q221 669 201 691.5Q181 714 171.5 745.5Q162 777 162 813H247Q247 765 266.5 742Q286 719 323 717Q359 719 379 742Q399 765 399 813H485Q485 777 474 745.5Q463 714 442 691.5Q421 669 391 656Q361 643 323 643Z" glyph-name="abreve" horiz-adv-x="671" unicode="&#259;" /><glyph d="M190 -10Q108 -10 64.5 28.5Q21 67 21 129Q21 199 66 236.5Q111 274 182 293Q212 301 241.5 308Q271 315 293.5 322.5Q316 330 330 339.5Q344 349 344 363Q344 382 325 393.5Q306 405 268 405Q210 405 185 380Q160 355 160 322V319H39V321Q39 412 97 461Q155 510 262 510Q308 510 347.5 500.5Q387 491 416.5 471.5Q446 452 462.5 421.5Q479 391 479 348V0H350V55Q323 28 282.5 9Q242 -10 190 -10ZM264 545Q223 545 192.5 558Q162 571 142 593.5Q122 616 112.5 647.5Q103 679 103 715H188Q188 667 207.5 644Q227 621 264 619Q300 621 320 644Q340 667 340 715H426Q426 679 415 647.5Q404 616 383 593.5Q362 571 332 558Q302 545 264 545ZM202 101Q232 101 258.5 113Q285 125 305 142Q325 159 337 178.5Q349 198 350 213V242Q347 234 318 222.5Q289 211 244 200Q193 189 171 175Q149 161 149 138Q149 118 164 109.5Q179 101 202 101Z" glyph-name="abreve.alt" horiz-adv-x="516" unicode="&#59542;" /><glyph d="M225 596H356L562 0H426L395 93H186L155 0H20ZM288 638Q247 638 216.5 651Q186 664 166 686.5Q146 709 136.5 740.5Q127 772 127 808H212Q212 760 231.5 737Q251 714 288 712Q324 714 344 737Q364 760 364 808H450Q450 772 439 740.5Q428 709 407 686.5Q386 664 356 651Q326 638 288 638ZM227 216H354L291 405Z" glyph-name="abreve.smcp" horiz-adv-x="581" unicode="&#57897;" /><glyph d="M308 -12Q255 -12 203.5 8.5Q152 29 111 68Q70 107 45 163.5Q20 220 20 292Q20 365 44.5 421.5Q69 478 109.5 517Q150 556 202.5 576.5Q255 597 310 597Q368 597 417 575Q466 553 498 515V585H633V0H498V76Q466 35 416 11.5Q366 -12 308 -12ZM330 112Q368 112 400 126Q432 140 455 165Q478 190 491.5 223Q505 256 505 294Q505 331 491.5 364Q478 397 455 421.5Q432 446 400 460Q368 474 330 474Q293 474 260.5 460Q228 446 204 422Q180 398 166.5 365Q153 332 153 294Q153 256 166.5 222.5Q180 189 204 164.5Q228 140 260.5 126Q293 112 330 112ZM268 812H352L471 642H369L310 731L251 642H149Z" glyph-name="acircumflex" horiz-adv-x="671" unicode="&#226;" /><glyph d="M190 -10Q108 -10 64.5 28.5Q21 67 21 129Q21 199 66 236.5Q111 274 182 293Q212 301 241.5 308Q271 315 293.5 322.5Q316 330 330 339.5Q344 349 344 363Q344 382 325 393.5Q306 405 268 405Q210 405 185 380Q160 355 160 322V319H39V321Q39 412 97 461Q155 510 262 510Q308 510 347.5 500.5Q387 491 416.5 471.5Q446 452 462.5 421.5Q479 391 479 348V0H350V55Q323 28 282.5 9Q242 -10 190 -10ZM222 720H306L425 550H323L264 639L205 550H103ZM202 101Q232 101 258.5 113Q285 125 305 142Q325 159 337 178.5Q349 198 350 213V242Q347 234 318 222.5Q289 211 244 200Q193 189 171 175Q149 161 149 138Q149 118 164 109.5Q179 101 202 101Z" glyph-name="acircumflex.alt" horiz-adv-x="516" unicode="&#59539;" /><glyph d="M225 596H356L562 0H426L395 93H186L155 0H20ZM248 816H332L451 646H349L290 735L231 646H129ZM227 216H354L291 405Z" glyph-name="acircumflex.smcp" horiz-adv-x="581" unicode="&#57891;" /><glyph d="M220 720H346L196 550H105Z" glyph-name="acute" horiz-adv-x="472" unicode="&#180;" /><glyph d="M308 -12Q255 -12 203.5 8.5Q152 29 111 68Q70 107 45 163.5Q20 220 20 292Q20 365 44.5 421.5Q69 478 109.5 517Q150 556 202.5 576.5Q255 597 310 597Q368 597 417 575Q466 553 498 515V585H633V0H498V76Q466 35 416 11.5Q366 -12 308 -12ZM330 112Q368 112 400 126Q432 140 455 165Q478 190 491.5 223Q505 256 505 294Q505 331 491.5 364Q478 397 455 421.5Q432 446 400 460Q368 474 330 474Q293 474 260.5 460Q228 446 204 422Q180 398 166.5 365Q153 332 153 294Q153 256 166.5 222.5Q180 189 204 164.5Q228 140 260.5 126Q293 112 330 112ZM156 713Q156 745 175.5 765Q195 785 228 785Q262 785 281 765Q300 745 300 713Q300 681 281 661.5Q262 642 228 642Q194 642 175 661.5Q156 681 156 713ZM347 713Q347 745 366.5 765Q386 785 419 785Q452 785 471.5 765Q491 745 491 713Q491 681 471.5 661.5Q452 642 419 642Q384 642 365.5 661.5Q347 681 347 713Z" glyph-name="adieresis" horiz-adv-x="671" unicode="&#228;" /><glyph d="M190 -10Q108 -10 64.5 28.5Q21 67 21 129Q21 199 66 236.5Q111 274 182 293Q212 301 241.5 308Q271 315 293.5 322.5Q316 330 330 339.5Q344 349 344 363Q344 382 325 393.5Q306 405 268 405Q210 405 185 380Q160 355 160 322V319H39V321Q39 412 97 461Q155 510 262 510Q308 510 347.5 500.5Q387 491 416.5 471.5Q446 452 462.5 421.5Q479 391 479 348V0H350V55Q323 28 282.5 9Q242 -10 190 -10ZM94 619Q94 651 113.5 671Q133 691 166 691Q200 691 219 671Q238 651 238 619Q238 587 219 567.5Q200 548 166 548Q132 548 113 567.5Q94 587 94 619ZM285 619Q285 651 304.5 671Q324 691 357 691Q390 691 409.5 671Q429 651 429 619Q429 587 409.5 567.5Q390 548 357 548Q322 548 303.5 567.5Q285 587 285 619ZM202 101Q232 101 258.5 113Q285 125 305 142Q325 159 337 178.5Q349 198 350 213V242Q347 234 318 222.5Q289 211 244 200Q193 189 171 175Q149 161 149 138Q149 118 164 109.5Q179 101 202 101Z" glyph-name="adieresis.alt" horiz-adv-x="516" unicode="&#59540;" /><glyph d="M225 596H356L562 0H426L395 93H186L155 0H20ZM123 715Q123 747 142.5 767Q162 787 195 787Q229 787 248 767Q267 747 267 715Q267 683 248 663.5Q229 644 195 644Q161 644 142 663.5Q123 683 123 715ZM314 715Q314 747 333.5 767Q353 787 386 787Q419 787 438.5 767Q458 747 458 715Q458 683 438.5 663.5Q419 644 386 644Q351 644 332.5 663.5Q314 683 314 715ZM227 216H354L291 405Z" glyph-name="adieresis.smcp" horiz-adv-x="581" unicode="&#57892;" /><glyph d="M719 -12Q635 -12 571.5 21Q508 54 469 111Q454 86 430.5 63.5Q407 41 376 24Q345 7 308 -2.5Q271 -12 230 -12Q175 -12 135 0.5Q95 13 69 35.5Q43 58 30.5 88Q18 118 18 154Q18 195 32.5 225Q47 255 73 277Q99 299 134.5 313.5Q170 328 211 338Q248 348 283 356Q318 364 345.5 373.5Q373 383 390 395.5Q407 408 407 427Q407 453 380 471.5Q353 490 299 490Q226 490 192 457.5Q158 425 158 380V377H34V379Q34 482 102.5 539.5Q171 597 293 597Q365 597 419 575.5Q473 554 503 512Q543 552 596.5 574.5Q650 597 713 597Q778 597 833 574.5Q888 552 928.5 511.5Q969 471 992 416Q1015 361 1015 296V249H538Q550 185 597.5 146Q645 107 719 107Q776 107 820 136.5Q864 166 885 213L999 164Q962 84 889 36Q816 -12 719 -12ZM237 100Q273 100 304 114.5Q335 129 358 149.5Q381 170 395 193.5Q409 217 412 235Q412 236 412.5 244.5Q413 253 412.5 263.5Q412 274 411.5 283Q411 292 410 294Q405 280 369 267.5Q333 255 276 242Q214 228 183.5 210.5Q153 193 153 158Q153 132 172.5 116Q192 100 237 100ZM713 478Q653 478 610 446Q567 414 547 362H877Q860 419 817 448.5Q774 478 713 478Z" glyph-name="ae" horiz-adv-x="1035" unicode="&#230;" /><glyph d="M284 596H755V471H453L473 362H755V236H495L515 125H755V0H402L386 88H197L158 0H13ZM251 209H365L332 392Z" glyph-name="ae.smcp" horiz-adv-x="787" unicode="&#57905;" /><glyph d="M719 -12Q635 -12 571.5 21Q508 54 469 111Q454 86 430.5 63.5Q407 41 376 24Q345 7 308 -2.5Q271 -12 230 -12Q175 -12 135 0.5Q95 13 69 35.5Q43 58 30.5 88Q18 118 18 154Q18 195 32.5 225Q47 255 73 277Q99 299 134.5 313.5Q170 328 211 338Q248 348 283 356Q318 364 345.5 373.5Q373 383 390 395.5Q407 408 407 427Q407 453 380 471.5Q353 490 299 490Q226 490 192 457.5Q158 425 158 380V377H34V379Q34 482 102.5 539.5Q171 597 293 597Q365 597 419 575.5Q473 554 503 512Q543 552 596.5 574.5Q650 597 713 597Q778 597 833 574.5Q888 552 928.5 511.5Q969 471 992 416Q1015 361 1015 296V249H538Q550 185 597.5 146Q645 107 719 107Q776 107 820 136.5Q864 166 885 213L999 164Q962 84 889 36Q816 -12 719 -12ZM237 100Q273 100 304 114.5Q335 129 358 149.5Q381 170 395 193.5Q409 217 412 235Q412 236 412.5 244.5Q413 253 412.5 263.5Q412 274 411.5 283Q411 292 410 294Q405 280 369 267.5Q333 255 276 242Q214 228 183.5 210.5Q153 193 153 158Q153 132 172.5 116Q192 100 237 100ZM713 478Q653 478 610 446Q567 414 547 362H877Q860 419 817 448.5Q774 478 713 478ZM584 808H710L560 638H469Z" glyph-name="aeacute" horiz-adv-x="1035" unicode="&#509;" /><glyph d="M284 596H755V471H453L473 362H755V236H495L515 125H755V0H402L386 88H197L158 0H13ZM535 816H661L511 646H420ZM251 209H365L332 392Z" glyph-name="aeacute.smcp" horiz-adv-x="787" unicode="&#57906;" /><glyph d="M308 -12Q255 -12 203.5 8.5Q152 29 111 68Q70 107 45 163.5Q20 220 20 292Q20 365 44.5 421.5Q69 478 109.5 517Q150 556 202.5 576.5Q255 597 310 597Q368 597 417 575Q466 553 498 515V585H633V0H498V76Q466 35 416 11.5Q366 -12 308 -12ZM330 112Q368 112 400 126Q432 140 455 165Q478 190 491.5 223Q505 256 505 294Q505 331 491.5 364Q478 397 455 421.5Q432 446 400 460Q368 474 330 474Q293 474 260.5 460Q228 446 204 422Q180 398 166.5 365Q153 332 153 294Q153 256 166.5 222.5Q180 189 204 164.5Q228 140 260.5 126Q293 112 330 112ZM136 815H263L377 645H286Z" glyph-name="agrave" horiz-adv-x="671" unicode="&#224;" /><glyph d="M190 -10Q108 -10 64.5 28.5Q21 67 21 129Q21 199 66 236.5Q111 274 182 293Q212 301 241.5 308Q271 315 293.5 322.5Q316 330 330 339.5Q344 349 344 363Q344 382 325 393.5Q306 405 268 405Q210 405 185 380Q160 355 160 322V319H39V321Q39 412 97 461Q155 510 262 510Q308 510 347.5 500.5Q387 491 416.5 471.5Q446 452 462.5 421.5Q479 391 479 348V0H350V55Q323 28 282.5 9Q242 -10 190 -10ZM68 720H195L309 550H218ZM202 101Q232 101 258.5 113Q285 125 305 142Q325 159 337 178.5Q349 198 350 213V242Q347 234 318 222.5Q289 211 244 200Q193 189 171 175Q149 161 149 138Q149 118 164 109.5Q179 101 202 101Z" glyph-name="agrave.alt" horiz-adv-x="516" unicode="&#59538;" /><glyph d="M225 596H356L562 0H426L395 93H186L155 0H20ZM98 816H225L339 646H248ZM227 216H354L291 405Z" glyph-name="agrave.smcp" horiz-adv-x="581" unicode="&#57890;" /><glyph d="M225 -240Q169 -240 133 -225.5Q97 -211 71 -182L148 -133Q162 -150 180 -159Q198 -168 224 -168Q246 -168 262 -159.5Q278 -151 278 -138Q278 -110 220 -110H213V-53H237Q300 -52 334.5 -76Q369 -100 369 -137Q369 -160 357 -179Q345 -198 325 -211.5Q305 -225 279 -232.5Q253 -240 225 -240Z" glyph-name="altcedilla" horiz-adv-x="472" unicode="&#58390;" /><glyph d="M308 -12Q255 -12 203.5 8.5Q152 29 111 68Q70 107 45 163.5Q20 220 20 292Q20 365 44.5 421.5Q69 478 109.5 517Q150 556 202.5 576.5Q255 597 310 597Q368 597 417 575Q466 553 498 515V585H633V0H498V76Q466 35 416 11.5Q366 -12 308 -12ZM330 112Q368 112 400 126Q432 140 455 165Q478 190 491.5 223Q505 256 505 294Q505 331 491.5 364Q478 397 455 421.5Q432 446 400 460Q368 474 330 474Q293 474 260.5 460Q228 446 204 422Q180 398 166.5 365Q153 332 153 294Q153 256 166.5 222.5Q180 189 204 164.5Q228 140 260.5 126Q293 112 330 112ZM203 732H467V646H203Z" glyph-name="amacron" horiz-adv-x="671" unicode="&#257;" /><glyph d="M190 -10Q108 -10 64.5 28.5Q21 67 21 129Q21 199 66 236.5Q111 274 182 293Q212 301 241.5 308Q271 315 293.5 322.5Q316 330 330 339.5Q344 349 344 363Q344 382 325 393.5Q306 405 268 405Q210 405 185 380Q160 355 160 322V319H39V321Q39 412 97 461Q155 510 262 510Q308 510 347.5 500.5Q387 491 416.5 471.5Q446 452 462.5 421.5Q479 391 479 348V0H350V55Q323 28 282.5 9Q242 -10 190 -10ZM130 636H394V550H130ZM202 101Q232 101 258.5 113Q285 125 305 142Q325 159 337 178.5Q349 198 350 213V242Q347 234 318 222.5Q289 211 244 200Q193 189 171 175Q149 161 149 138Q149 118 164 109.5Q179 101 202 101Z" glyph-name="amacron.alt" horiz-adv-x="516" unicode="&#59541;" /><glyph d="M225 596H356L562 0H426L395 93H186L155 0H20ZM159 732H423V646H159ZM227 216H354L291 405Z" glyph-name="amacron.smcp" horiz-adv-x="581" unicode="&#57896;" /><glyph d="M506 56Q462 25 412.5 7Q363 -11 309 -11Q230 -11 175 10.5Q120 32 85.5 66Q51 100 36 142.5Q21 185 21 227Q21 296 56.5 348Q92 400 147 432Q130 459 121.5 488Q113 517 113 552Q113 592 128.5 626Q144 660 172 685.5Q200 711 238.5 725.5Q277 740 322 740Q368 740 403 729Q438 718 464 699.5Q490 681 507.5 656.5Q525 632 535 604L403 557Q395 583 377 601Q359 619 327 619Q296 619 276 600Q256 581 256 552Q256 531 261.5 514Q267 497 280.5 478Q294 459 317.5 434.5Q341 410 377 374L516 234Q538 265 552.5 299Q567 333 575 368H452V497H710V434Q710 365 681 290Q652 215 601 149L749 0H563ZM308 108Q338 108 366 116.5Q394 125 420 141L265 297Q243 318 224 338Q191 318 173.5 292Q156 266 156 228Q156 204 166 182.5Q176 161 195 144.5Q214 128 242.5 118Q271 108 308 108Z" glyph-name="ampersand" horiz-adv-x="749" unicode="&amp;" /><glyph d="M414 36Q379 15 340 3Q301 -9 258 -9Q193 -9 148 8Q103 25 75 52Q47 79 34.5 114Q22 149 22 185Q22 239 48 280.5Q74 322 115 349Q102 371 95.5 394Q89 417 89 443Q89 477 101.5 506.5Q114 536 137.5 557.5Q161 579 194 591.5Q227 604 267 604Q305 604 334 595.5Q363 587 385 572Q407 557 423 537.5Q439 518 449 496L321 440Q315 459 303 472Q291 485 271 485Q251 485 238 473Q225 461 225 443Q225 430 229.5 418.5Q234 407 245.5 392Q257 377 277.5 356.5Q298 336 329 304L427 205Q458 248 470 297H376V420H603V361Q603 301 578.5 238.5Q554 176 510 122L630 0H451ZM258 106Q294 106 327 121L222 228L192 257Q172 243 162.5 226.5Q153 210 153 186Q153 153 180 129.5Q207 106 258 106Z" glyph-name="ampersand.smcp" horiz-adv-x="639" unicode="&#58369;" /><glyph d="M11 250 238 730H382L154 250L382 -230H238Z" glyph-name="anglebracketleft" horiz-adv-x="392" unicode="&#12296;" /><glyph d="M11 360 238 840H382L154 360L382 -120H238Z" glyph-name="anglebracketleft.cap" horiz-adv-x="392" unicode="&#58519;" /><glyph d="M196 -98 11 293 197 686H336L149 293L335 -98Z" glyph-name="anglebracketleft.smcp" horiz-adv-x="343" unicode="&#58527;" /><glyph d="M11 -230 239 250 11 730H155L382 250L155 -230Z" glyph-name="anglebracketright" horiz-adv-x="392" unicode="&#12297;" /><glyph d="M11 -120 239 360 11 840H155L382 360L155 -120Z" glyph-name="anglebracketright.cap" horiz-adv-x="392" unicode="&#58520;" /><glyph d="M11 -98 197 293 10 686H149L335 293L150 -98Z" glyph-name="anglebracketright.smcp" horiz-adv-x="343" unicode="&#58512;" /><glyph d="M225 596H356L562 0H426L291 405L155 0H20Z" glyph-name="anocross.smcp" horiz-adv-x="581" unicode="&#57888;" /><glyph d="M308 -12Q255 -12 203.5 8.5Q152 29 111 68Q70 107 45 163.5Q20 220 20 292Q20 365 44.5 421.5Q69 478 109.5 517Q150 556 202.5 576.5Q255 597 310 597Q368 597 417 575Q466 553 498 515V585H633V0H634Q577 -35 553 -64Q529 -93 529 -111Q529 -128 539.5 -136Q550 -144 567 -144Q582 -144 594.5 -135Q607 -126 617 -114L696 -169Q670 -196 638 -212.5Q606 -229 562 -229Q504 -229 467.5 -198.5Q431 -168 430 -121Q429 -83 447.5 -53.5Q466 -24 498 3V76Q466 35 416 11.5Q366 -12 308 -12ZM330 112Q368 112 400 126Q432 140 455 165Q478 190 491.5 223Q505 256 505 294Q505 331 491.5 364Q478 397 455 421.5Q432 446 400 460Q368 474 330 474Q293 474 260.5 460Q228 446 204 422Q180 398 166.5 365Q153 332 153 294Q153 256 166.5 222.5Q180 189 204 164.5Q228 140 260.5 126Q293 112 330 112Z" glyph-name="aogonek" horiz-adv-x="671" unicode="&#261;" /><glyph d="M411 -229Q353 -229 316.5 -198.5Q280 -168 279 -121Q278 -82 297 -52Q316 -22 350 5V55Q323 28 282.5 9Q242 -10 190 -10Q108 -10 64.5 28.5Q21 67 21 129Q21 199 66 236.5Q111 274 182 293Q212 301 241.5 308Q271 315 293.5 322.5Q316 330 330 339.5Q344 349 344 363Q344 382 325 393.5Q306 405 268 405Q210 405 185 380Q160 355 160 322V319H39V321Q39 412 97 461Q155 510 262 510Q308 510 347.5 500.5Q387 491 416.5 471.5Q446 452 462.5 421.5Q479 391 479 348V2L483 0Q426 -35 402 -64Q378 -93 378 -111Q378 -128 388.5 -136Q399 -144 416 -144Q431 -144 443.5 -135Q456 -126 466 -114L545 -169Q519 -196 487 -212.5Q455 -229 411 -229ZM202 101Q232 101 258.5 113Q285 125 305 142Q325 159 337 178.5Q349 198 350 213V242Q347 234 318 222.5Q289 211 244 200Q193 189 171 175Q149 161 149 138Q149 118 164 109.5Q179 101 202 101Z" glyph-name="aogonek.alt" horiz-adv-x="516" unicode="&#59545;" /><glyph d="M225 596H356L562 0Q521 -27 495.5 -44.5Q470 -62 456 -74Q442 -86 437 -94.5Q432 -103 432 -113Q432 -130 445 -137Q458 -144 475 -144Q495 -144 508 -135Q521 -126 535 -115L614 -169Q588 -193 549.5 -210Q511 -227 475 -227Q410 -227 370.5 -195.5Q331 -164 331 -118Q331 -86 350 -55Q369 -24 423 9L395 93H186L155 0H20ZM227 216H354L291 405Z" glyph-name="aogonek.smcp" horiz-adv-x="581" unicode="&#57903;" /><glyph d="M36 499Q58 510 80 517.5Q102 525 133 525Q156 525 179 519Q202 513 224.5 506Q247 499 269 493Q291 487 310 487Q339 487 359.5 494Q380 501 406 512V397Q385 385 364 378.5Q343 372 310 372Q289 372 266 378Q243 384 219.5 391Q196 398 174 404Q152 410 133 410Q103 410 81 402.5Q59 395 36 384ZM36 332Q58 343 78.5 351Q99 359 130 359Q153 359 176.5 353Q200 347 224 340.5Q248 334 270.5 328Q293 322 312 322Q341 322 360.5 328Q380 334 406 345V230Q385 218 365 212.5Q345 207 312 207Q291 207 267 213Q243 219 219 225.5Q195 232 172 238Q149 244 130 244Q100 244 79.5 236Q59 228 36 217Z" glyph-name="approxequal" horiz-adv-x="441" unicode="&#8776;" /><glyph d="M308 -12Q255 -12 203.5 8.5Q152 29 111 68Q70 107 45 163.5Q20 220 20 292Q20 365 44.5 421.5Q69 478 109.5 517Q150 556 202.5 576.5Q255 597 310 597Q368 597 417 575Q466 553 498 515V585H633V0H498V76Q466 35 416 11.5Q366 -12 308 -12ZM330 112Q368 112 400 126Q432 140 455 165Q478 190 491.5 223Q505 256 505 294Q505 331 491.5 364Q478 397 455 421.5Q432 446 400 460Q368 474 330 474Q293 474 260.5 460Q228 446 204 422Q180 398 166.5 365Q153 332 153 294Q153 256 166.5 222.5Q180 189 204 164.5Q228 140 260.5 126Q293 112 330 112ZM329 640Q305 640 284 649Q263 658 247 674Q231 690 222 711Q213 732 213 756Q213 781 222 802.5Q231 824 247 840Q263 856 284 865Q305 874 329 874Q353 874 374.5 865Q396 856 412 840Q428 824 437 802.5Q446 781 446 756Q446 732 437 711Q428 690 412 674Q396 658 374.5 649Q353 640 329 640ZM329 717Q346 717 358 728.5Q370 740 370 756Q370 773 358 785Q346 797 329 797Q312 797 300.5 785Q289 773 289 756Q289 740 300.5 728.5Q312 717 329 717Z" glyph-name="aring" horiz-adv-x="671" unicode="&#229;" /><glyph d="M190 -10Q108 -10 64.5 28.5Q21 67 21 129Q21 199 66 236.5Q111 274 182 293Q212 301 241.5 308Q271 315 293.5 322.5Q316 330 330 339.5Q344 349 344 363Q344 382 325 393.5Q306 405 268 405Q210 405 185 380Q160 355 160 322V319H39V321Q39 412 97 461Q155 510 262 510Q308 510 347.5 500.5Q387 491 416.5 471.5Q446 452 462.5 421.5Q479 391 479 348V0H350V55Q323 28 282.5 9Q242 -10 190 -10ZM264 543Q240 543 219 552Q198 561 182 577Q166 593 157 614Q148 635 148 659Q148 684 157 705.5Q166 727 182 743Q198 759 219 768Q240 777 264 777Q288 777 309.5 768Q331 759 347 743Q363 727 372 705.5Q381 684 381 659Q381 635 372 614Q363 593 347 577Q331 561 309.5 552Q288 543 264 543ZM202 101Q232 101 258.5 113Q285 125 305 142Q325 159 337 178.5Q349 198 350 213V242Q347 234 318 222.5Q289 211 244 200Q193 189 171 175Q149 161 149 138Q149 118 164 109.5Q179 101 202 101ZM264 620Q281 620 293 631.5Q305 643 305 659Q305 676 293 688Q281 700 264 700Q247 700 235.5 688Q224 676 224 659Q224 643 235.5 631.5Q247 620 264 620Z" glyph-name="aring.alt" horiz-adv-x="516" unicode="&#59543;" /><glyph d="M215 569Q195 585 184 608.5Q173 632 173 659Q173 684 182 705.5Q191 727 207 743Q223 759 244 768Q265 777 289 777Q313 777 334.5 768Q356 759 372 743Q388 727 397 705.5Q406 684 406 659Q406 632 395 609.5Q384 587 365 570L562 0H426L395 93H186L155 0H20ZM227 216H354L291 405ZM289 620Q306 620 318 631.5Q330 643 330 659Q330 676 318 688Q306 700 289 700Q272 700 260.5 688Q249 676 249 659Q249 643 260.5 631.5Q272 620 289 620Z" glyph-name="aring.smcp" horiz-adv-x="581" unicode="&#57894;" /><glyph d="M308 -12Q255 -12 203.5 8.5Q152 29 111 68Q70 107 45 163.5Q20 220 20 292Q20 348 35 395Q50 442 76 478.5Q102 515 137 540.5Q172 566 212 580Q198 606 198 636Q198 661 207 682.5Q216 704 232 720Q248 736 269 745Q290 754 314 754Q338 754 359.5 745Q381 736 397 720Q413 704 422 682.5Q431 661 431 636Q431 604 414 576Q465 555 498 515V585H633V0H498V76Q466 35 416 11.5Q366 -12 308 -12ZM330 112Q368 112 400 126Q432 140 455 165Q478 190 491.5 223Q505 256 505 294Q505 331 491.5 364Q478 397 455 421.5Q432 446 400 460Q368 474 330 474Q293 474 260.5 460Q228 446 204 422Q180 398 166.5 365Q153 332 153 294Q153 256 166.5 222.5Q180 189 204 164.5Q228 140 260.5 126Q293 112 330 112ZM382 958H508L358 788H267ZM314 597Q331 597 343 608.5Q355 620 355 636Q355 653 343 665Q331 677 314 677Q297 677 285.5 665Q274 653 274 636Q274 621 284.5 609.5Q295 598 310 597Z" glyph-name="aringacute" horiz-adv-x="671" unicode="&#507;" /><glyph d="M190 -10Q108 -10 64.5 28.5Q21 67 21 129Q21 199 66 236.5Q111 274 182 293Q212 301 241.5 308Q271 315 293.5 322.5Q316 330 330 339.5Q344 349 344 363Q344 382 325 393.5Q306 405 268 405Q210 405 185 380Q160 355 160 322V319H39V321Q39 412 97 461Q155 510 262 510Q308 510 347.5 500.5Q387 491 416.5 471.5Q446 452 462.5 421.5Q479 391 479 348V0H350V55Q323 28 282.5 9Q242 -10 190 -10ZM263 546Q239 546 218 555Q197 564 181 580Q165 596 156 617Q147 638 147 662Q147 687 156 708.5Q165 730 181 746Q197 762 218 771Q239 780 263 780Q287 780 308.5 771Q330 762 346 746Q362 730 371 708.5Q380 687 380 662Q380 638 371 617Q362 596 346 580Q330 564 308.5 555Q287 546 263 546ZM333 988H459L309 818H218ZM202 101Q232 101 258.5 113Q285 125 305 142Q325 159 337 178.5Q349 198 350 213V242Q347 234 318 222.5Q289 211 244 200Q193 189 171 175Q149 161 149 138Q149 118 164 109.5Q179 101 202 101ZM263 623Q280 623 292 634.5Q304 646 304 662Q304 679 292 691Q280 703 263 703Q246 703 234.5 691Q223 679 223 662Q223 646 234.5 634.5Q246 623 263 623Z" glyph-name="aringacute.alt" horiz-adv-x="516" unicode="&#62552;" /><glyph d="M215 569Q195 585 184 608.5Q173 632 173 659Q173 684 182 705.5Q191 727 207 743Q223 759 244 768Q265 777 289 777Q313 777 334.5 768Q356 759 372 743Q388 727 397 705.5Q406 684 406 659Q406 632 395 609.5Q384 587 365 570L562 0H426L395 93H186L155 0H20ZM358 987H484L334 817H243ZM227 216H354L291 405ZM289 620Q306 620 318 631.5Q330 643 330 659Q330 676 318 688Q306 700 289 700Q272 700 260.5 688Q249 676 249 659Q249 643 260.5 631.5Q272 620 289 620Z" glyph-name="aringacute.smcp" horiz-adv-x="581" unicode="&#57901;" /><glyph d="M412 -1Q387 36 352 71Q317 106 279 135Q241 164 204.5 185Q168 206 140 214L204 336Q256 316 298.5 282Q341 248 373 209V730H504V208Q536 247 578.5 281.5Q621 316 674 336L738 214Q710 206 673.5 185Q637 164 599 135Q561 106 525.5 71Q490 36 465 -1Z" glyph-name="arrowdown" horiz-adv-x="896" unicode="&#8595;" /><glyph d="M834 129Q795 111 755.5 86Q716 61 680.5 31.5Q645 2 615.5 -32Q586 -66 566 -103H508Q487 -66 453 -32.5Q419 1 381.5 28Q344 55 307 74Q270 93 242 101L301 222Q353 202 396 171.5Q439 141 471 104V730H601V114Q628 151 669.5 182.5Q711 214 757 239ZM632 505V546L792 637V576ZM632 689V730L792 821V760ZM632 597V638L792 729V668ZM285 758V819L440 731V690ZM285 574V635L440 547V506ZM285 666V727L440 639V598Z" glyph-name="arrowdown.alt" horiz-adv-x="1068" unicode="&#62553;" /><glyph d="M309 66Q272 145 209.5 216Q147 287 73 334V391Q110 416 145 451.5Q180 487 209 525Q238 563 259 600Q280 637 288 665L410 600Q390 547 355.5 504.5Q321 462 282 430H805V300H283Q323 274 358 232Q393 190 419 142Z" glyph-name="arrowleft" horiz-adv-x="896" unicode="&#8592;" /><glyph d="M275 68Q256 107 231.5 146.5Q207 186 177.5 221.5Q148 257 114 287Q80 317 43 336V393Q81 414 114 448Q147 482 174 519.5Q201 557 220 594Q239 631 247 659L368 601Q348 548 318 505.5Q288 463 251 431H942V301H259Q296 273 328 231.5Q360 190 385 144ZM717 270H758L849 109H788ZM901 270H942L1033 109H972ZM809 270H850L941 109H880ZM970 617H1031L943 462H902ZM786 617H847L759 462H718ZM878 617H939L851 462H810Z" glyph-name="arrowleft.alt" horiz-adv-x="1068" unicode="&#62560;" /><glyph d="M459 142Q484 190 519.5 232Q555 274 594 300H73V430H596Q557 462 522.5 504.5Q488 547 468 600L590 665Q598 637 619 600Q640 563 669 525Q698 487 733 451.5Q768 416 805 391V334Q731 287 668.5 216Q606 145 569 66Z" glyph-name="arrowright" horiz-adv-x="896" unicode="&#8594;" /><glyph d="M794 664Q813 625 837.5 585.5Q862 546 892 510.5Q922 475 955.5 445.5Q989 416 1026 396V338Q989 317 955.5 283Q922 249 895.5 211.5Q869 174 850 137Q831 100 823 72L702 131Q721 183 751.5 226Q782 269 819 301H128V431H809Q773 458 741 499.5Q709 541 685 587ZM353 462H311L221 622H281ZM169 462H127L37 622H97ZM261 462H219L129 622H189ZM99 115H39L126 270H168ZM283 115H223L310 270H352ZM191 115H131L218 270H260Z" glyph-name="arrowright.alt" horiz-adv-x="1068" unicode="&#62561;" /><glyph d="M374 522Q342 483 299 448.5Q256 414 204 395L140 516Q168 524 204.5 545Q241 566 279 595Q317 624 352.5 659Q388 694 413 731H466Q491 694 526 659Q561 624 599 595Q637 566 673.5 545Q710 524 738 516L674 395Q622 414 579.5 448Q537 482 505 520V0H374Z" glyph-name="arrowup" horiz-adv-x="896" unicode="&#8593;" /><glyph d="M243 622Q282 640 321.5 665Q361 690 396.5 719.5Q432 749 461.5 782.5Q491 816 510 853H568Q589 816 623 782.5Q657 749 694.5 722.5Q732 696 769 677Q806 658 834 650L776 529Q723 549 680.5 579Q638 609 606 646V0H475V636Q447 600 406 568Q365 536 319 512ZM444 226V184L284 93V154ZM444 42V0L284 -91V-30ZM444 134V92L284 1V62ZM792 -28V-89L636 -1V41ZM792 156V95L636 183V225ZM792 64V3L636 91V133Z" glyph-name="arrowup.alt" horiz-adv-x="1068" unicode="&#62562;" /><glyph d="M194 719H278L397 549H296L236 638L177 549H75Z" glyph-name="asciicircum" horiz-adv-x="472" unicode="^" /><glyph d="M63 574Q63 635 90.5 671.5Q118 708 168 708Q193 708 211 700.5Q229 693 244 684Q258 675 270.5 667.5Q283 660 296 660Q324 660 324 704H402Q402 643 376 606.5Q350 570 297 570Q268 570 247.5 580Q227 590 210 600Q199 607 189 612Q179 617 168 617Q142 617 142 574Z" glyph-name="asciitilde" horiz-adv-x="471" unicode="~" /><glyph d="M238 492 261 377H144L166 491L77 415L20 517L130 554L20 593L80 693L167 617L144 731H261L237 615L327 693L385 591L273 553L385 515L325 415Z" glyph-name="asterisk" horiz-adv-x="405" unicode="*" /><glyph d="M395 -125Q317 -125 249 -95.5Q181 -66 130.5 -15.5Q80 35 51 103.5Q22 172 22 250Q22 328 51 396Q80 464 130.5 515Q181 566 249 595.5Q317 625 395 625Q481 625 549.5 596Q618 567 667 520Q716 473 742 412Q768 351 768 288Q768 245 756 207Q744 169 721.5 140Q699 111 667 94Q635 77 596 77Q551 77 522 93Q493 109 476 132Q457 107 425.5 92.5Q394 78 350 78Q320 78 290.5 90Q261 102 238.5 124.5Q216 147 204 181Q192 215 196 258Q201 304 219.5 338Q238 372 264 394Q290 416 319.5 427Q349 438 375 438Q407 438 431.5 428Q456 418 472 401Q473 412 474 418Q475 424 475 427Q476 431 476 432H583L564 251Q560 219 570 201Q580 183 605 183Q629 183 644.5 212Q660 241 660 288Q660 331 641.5 372.5Q623 414 589 447Q555 480 506 500Q457 520 395 520Q339 520 290.5 499Q242 478 206 441Q170 404 149 354.5Q128 305 128 249Q128 193 149 144Q170 95 206 58Q242 21 290.5 0Q339 -21 395 -21Q455 -21 505 2.5Q555 26 593 67L674 0Q623 -57 551 -91Q479 -125 395 -125ZM375 179Q410 179 433.5 203Q457 227 460 261Q464 294 445 318Q426 342 392 342Q359 342 333 319Q307 296 305 261Q300 226 320.5 202.5Q341 179 375 179Z" glyph-name="at" horiz-adv-x="789" unicode="@" /><glyph d="M395 -10Q317 -10 249 19.5Q181 49 130.5 99.5Q80 150 51 218.5Q22 287 22 365Q22 443 51 511Q80 579 130.5 630Q181 681 249 710.5Q317 740 395 740Q481 740 549.5 711Q618 682 667 635Q716 588 742 527Q768 466 768 403Q768 360 756 322Q744 284 721.5 255Q699 226 667 209Q635 192 596 192Q551 192 522 208Q493 224 476 247Q457 222 425.5 207.5Q394 193 350 193Q320 193 290.5 205Q261 217 238.5 239.5Q216 262 204 296Q192 330 196 373Q201 419 219.5 453Q238 487 264 509Q290 531 319.5 542Q349 553 375 553Q407 553 431.5 543Q456 533 472 516Q473 527 474 533Q475 539 475 542Q476 546 476 547H583L564 366Q560 334 570 316Q580 298 605 298Q629 298 644.5 327Q660 356 660 403Q660 446 641.5 487.5Q623 529 589 562Q555 595 506 615Q457 635 395 635Q339 635 290.5 614Q242 593 206 556Q170 519 149 469.5Q128 420 128 364Q128 308 149 259Q170 210 206 173Q242 136 290.5 115Q339 94 395 94Q455 94 505 117.5Q555 141 592 182L674 115Q623 58 551 24Q479 -10 395 -10ZM375 294Q410 294 433.5 318Q457 342 460 376Q464 409 445 433Q426 457 392 457Q359 457 333 434Q307 411 305 376Q300 341 320.5 317.5Q341 294 375 294Z" glyph-name="at.cap" horiz-adv-x="789" unicode="&#58643;" /><glyph d="M395 -75Q317 -75 249 -45.5Q181 -16 130.5 34.5Q80 85 51 153.5Q22 222 22 300Q22 378 51 446Q80 514 130.5 565Q181 616 249 645.5Q317 675 395 675Q481 675 549.5 646Q618 617 667 570Q716 523 742 462Q768 401 768 338Q768 295 756 257Q744 219 721.5 190Q699 161 667 144Q635 127 596 127Q551 127 522 143Q493 159 476 182Q457 157 425.5 142.5Q394 128 350 128Q320 128 290.5 140Q261 152 238.5 174.5Q216 197 204 231Q192 265 196 308Q201 354 219.5 388Q238 422 264 444Q290 466 319.5 477Q349 488 375 488Q407 488 431.5 478Q456 468 472 451Q473 462 474 468Q475 474 475 477Q476 481 476 482H583L564 301Q560 269 570 251Q580 233 605 233Q629 233 644.5 262Q660 291 660 338Q660 381 641.5 422.5Q623 464 589 497Q555 530 506 550Q457 570 395 570Q339 570 290.5 549Q242 528 206 491Q170 454 149 404.5Q128 355 128 299Q128 243 149 194Q170 145 206 108Q242 71 290.5 50Q339 29 395 29Q455 29 505 52.5Q555 76 592 117L674 50Q623 -7 551 -41Q479 -75 395 -75ZM375 229Q410 229 433.5 253Q457 277 460 311Q464 344 445 368Q426 392 392 392Q359 392 333 369Q307 346 305 311Q300 276 320.5 252.5Q341 229 375 229Z" glyph-name="at.smcp" horiz-adv-x="789" unicode="&#62987;" /><glyph d="M308 -12Q255 -12 203.5 8.5Q152 29 111 68Q70 107 45 163.5Q20 220 20 292Q20 365 44.5 421.5Q69 478 109.5 517Q150 556 202.5 576.5Q255 597 310 597Q368 597 417 575Q466 553 498 515V585H633V0H498V76Q466 35 416 11.5Q366 -12 308 -12ZM330 112Q368 112 400 126Q432 140 455 165Q478 190 491.5 223Q505 256 505 294Q505 331 491.5 364Q478 397 455 421.5Q432 446 400 460Q368 474 330 474Q293 474 260.5 460Q228 446 204 422Q180 398 166.5 365Q153 332 153 294Q153 256 166.5 222.5Q180 189 204 164.5Q228 140 260.5 126Q293 112 330 112ZM163 645Q163 706 190.5 743Q218 780 267 780Q292 780 310 772.5Q328 765 344 756Q358 746 370.5 738.5Q383 731 396 731Q424 731 424 776H502Q502 714 476 677.5Q450 641 397 641Q368 641 347.5 651.5Q327 662 310 672Q299 679 288.5 684Q278 689 267 689Q241 689 241 645Z" glyph-name="atilde" horiz-adv-x="671" unicode="&#227;" /><glyph d="M190 -10Q108 -10 64.5 28.5Q21 67 21 129Q21 199 66 236.5Q111 274 182 293Q212 301 241.5 308Q271 315 293.5 322.5Q316 330 330 339.5Q344 349 344 363Q344 382 325 393.5Q306 405 268 405Q210 405 185 380Q160 355 160 322V319H39V321Q39 412 97 461Q155 510 262 510Q308 510 347.5 500.5Q387 491 416.5 471.5Q446 452 462.5 421.5Q479 391 479 348V0H350V55Q323 28 282.5 9Q242 -10 190 -10ZM103 550Q103 611 130.5 648Q158 685 207 685Q232 685 250 677.5Q268 670 284 661Q298 651 310.5 643.5Q323 636 336 636Q364 636 364 681H442Q442 619 416 582.5Q390 546 337 546Q308 546 287.5 556.5Q267 567 250 577Q239 584 228.5 589Q218 594 207 594Q181 594 181 550ZM202 101Q232 101 258.5 113Q285 125 305 142Q325 159 337 178.5Q349 198 350 213V242Q347 234 318 222.5Q289 211 244 200Q193 189 171 175Q149 161 149 138Q149 118 164 109.5Q179 101 202 101Z" glyph-name="atilde.alt" horiz-adv-x="516" unicode="&#59544;" /><glyph d="M225 596H356L562 0H426L395 93H186L155 0H20ZM119 646Q119 707 146.5 744Q174 781 223 781Q248 781 266 773.5Q284 766 300 757Q314 747 326.5 739.5Q339 732 352 732Q380 732 380 777H458Q458 715 432 678.5Q406 642 353 642Q324 642 303.5 652.5Q283 663 266 673Q255 680 244.5 685Q234 690 223 690Q197 690 197 646ZM227 216H354L291 405Z" glyph-name="atilde.smcp" horiz-adv-x="581" unicode="&#57893;" /><glyph d="M225 596H356L562 0H426L395 93H186L155 0H20ZM36 596H156V465H36ZM425 596H545V465H425ZM227 216H354L291 405Z" glyph-name="aumlaut.smcp" horiz-adv-x="581" unicode="&#61817;" /><glyph d="M365 -12Q305 -12 255 11Q205 34 173 76V0H39V740H174V511Q205 550 254.5 573.5Q304 597 363 597Q418 597 470 576.5Q522 556 562 517Q602 478 626.5 421.5Q651 365 651 292Q651 220 626 163.5Q601 107 560.5 68Q520 29 469 8.5Q418 -12 365 -12ZM342 112Q379 112 411 126Q443 140 467 164.5Q491 189 504.5 222.5Q518 256 518 294Q518 332 504.5 365Q491 398 467 422Q443 446 411 460Q379 474 342 474Q305 474 273 460Q241 446 217.5 421.5Q194 397 181 364Q168 331 168 294Q168 256 181 223Q194 190 217.5 165Q241 140 273 126Q305 112 342 112Z" glyph-name="b" horiz-adv-x="668" unicode="b" /><glyph d="M37 596H235Q341 596 395.5 554Q450 512 450 428Q450 388 434.5 359.5Q419 331 390 312Q428 293 448 260.5Q468 228 468 180Q469 88 408.5 44Q348 0 244 0H37ZM171 243V120H246Q332 120 332 183Q332 213 313.5 228Q295 243 244 243ZM171 477V366H240Q282 366 299.5 382Q317 398 317 424Q317 451 299 464Q281 477 240 477Z" glyph-name="b.smcp" horiz-adv-x="489" unicode="&#57858;" /><glyph d="M11 730H155L501 0H357Z" glyph-name="backslash" horiz-adv-x="511" unicode="\" /><glyph d="M11 730H155L501 0H357Z" glyph-name="backslash.cap" horiz-adv-x="511" unicode="&#58466;" /><glyph d="M17 596H155L438 0H300Z" glyph-name="backslash.smcp" horiz-adv-x="454" unicode="&#58472;" /><glyph d="M100 500H600V0H100ZM218 117H482V383H218ZM350 314 406 371 471 306 415 249 470 194 405 129 350 183 296 128 231 193 285 248 230 304 295 369Z" glyph-name="ballotboxwithx" horiz-adv-x="700" unicode="&#9746;" /><glyph d="M36 730H172V-230H36Z" glyph-name="bar" horiz-adv-x="209" unicode="|" /><glyph d="M36 840H172V-120H36Z" glyph-name="bar.cap" horiz-adv-x="209" unicode="&#58467;" /><glyph d="M36 686H168V-98H36Z" glyph-name="bar.smcp" horiz-adv-x="204" unicode="&#58473;" /><glyph d="M463 -10Q385 -10 317 19.5Q249 49 198.5 99.5Q148 150 119 218.5Q90 287 90 365Q90 443 119 511Q148 579 198.5 630Q249 681 317 710.5Q385 740 463 740Q541 740 609 710.5Q677 681 728 630Q779 579 808 511Q837 443 837 365Q837 287 808 218.5Q779 150 728 99.5Q677 49 609 19.5Q541 -10 463 -10Z" glyph-name="blackcircle" horiz-adv-x="927" unicode="&#9679;" /><glyph d="M100 500H600V0H100Z" glyph-name="blacksmallsquare" horiz-adv-x="700" unicode="&#9642;" /><glyph d="M100 730H826V0H100Z" glyph-name="blacksquare" horiz-adv-x="926" unicode="&#9632;" /><glyph d="M335 -230Q272 -230 230 -219Q188 -208 162.5 -182.5Q137 -157 126 -115.5Q115 -74 115 -13V84Q115 113 112 132.5Q109 152 99.5 163.5Q90 175 71.5 180Q53 185 21 185V310Q53 310 71.5 314.5Q90 319 99.5 330.5Q109 342 112 361.5Q115 381 115 410V513Q115 574 126 615.5Q137 657 162.5 682.5Q188 708 230 719Q272 730 335 730H346V605Q314 605 294.5 601.5Q275 598 265 588.5Q255 579 252 560.5Q249 542 249 512V409Q249 346 232 306.5Q215 267 174 247Q216 227 232.5 187.5Q249 148 249 85V-12Q249 -42 252 -60.5Q255 -79 265 -88.5Q275 -98 294.5 -101.5Q314 -105 346 -105V-230Z" glyph-name="braceleft" horiz-adv-x="372" unicode="{" /><glyph d="M335 -120Q272 -120 230 -109Q188 -98 162.5 -72.5Q137 -47 126 -5.5Q115 36 115 97V194Q115 223 112 242.5Q109 262 99.5 273.5Q90 285 71.5 290Q53 295 21 295V420Q53 420 71.5 424.5Q90 429 99.5 440.5Q109 452 112 471.5Q115 491 115 520V623Q115 684 126 725.5Q137 767 162.5 792.5Q188 818 230 829Q272 840 335 840H346V715Q314 715 294.5 711.5Q275 708 265 698.5Q255 689 252 670.5Q249 652 249 622V519Q249 456 232 416.5Q215 377 174 357Q216 337 232.5 297.5Q249 258 249 195V98Q249 68 252 49.5Q255 31 265 21.5Q275 12 294.5 8.5Q314 5 346 5V-120Z" glyph-name="braceleft.cap" horiz-adv-x="372" unicode="&#58517;" /><glyph d="M289 -98Q236 -98 201 -89.5Q166 -81 145 -60.5Q124 -40 115 -6Q106 28 106 79V150Q106 175 104 190.5Q102 206 94.5 215Q87 224 73.5 227Q60 230 36 230V352Q60 352 73.5 355Q87 358 94.5 367Q102 376 104 391.5Q106 407 106 432V509Q106 559 115 593Q124 627 145 647.5Q166 668 201 677Q236 686 289 686H300V565Q279 565 266 562.5Q253 560 246.5 553.5Q240 547 237.5 535Q235 523 235 504V431Q235 376 223 342Q211 308 179 291Q211 273 223 239Q235 205 235 151V83Q235 65 237.5 53Q240 41 246.5 34Q253 27 266 24.5Q279 22 300 22V-98Z" glyph-name="braceleft.smcp" horiz-adv-x="336" unicode="&#58525;" /><glyph d="M26 -105Q58 -105 77.5 -101.5Q97 -98 107 -88.5Q117 -79 120 -60.5Q123 -42 123 -12V85Q123 148 139.5 187.5Q156 227 198 247Q156 267 139.5 306.5Q123 346 123 409V512Q123 542 120 560.5Q117 579 107 588.5Q97 598 77.5 601.5Q58 605 26 605V730H37Q100 730 142 719Q184 708 209.5 682.5Q235 657 246 615.5Q257 574 257 513V410Q257 381 260 361.5Q263 342 272.5 330.5Q282 319 301 314.5Q320 310 351 310V185Q320 185 301 180Q282 175 272.5 163.5Q263 152 260 132.5Q257 113 257 84V-13Q257 -74 246 -115.5Q235 -157 209.5 -182.5Q184 -208 142 -219Q100 -230 37 -230H26Z" glyph-name="braceright" horiz-adv-x="372" unicode="}" /><glyph d="M26 5Q58 5 77.5 8.5Q97 12 107 21.5Q117 31 120 49.5Q123 68 123 98V195Q123 258 139.5 297.5Q156 337 198 357Q156 377 139.5 416.5Q123 456 123 519V622Q123 652 120 670.5Q117 689 107 698.5Q97 708 77.5 711.5Q58 715 26 715V840H37Q100 840 142 829Q184 818 209.5 792.5Q235 767 246 725.5Q257 684 257 623V520Q257 491 260 471.5Q263 452 272.5 440.5Q282 429 301 424.5Q320 420 351 420V295Q320 295 301 290Q282 285 272.5 273.5Q263 262 260 242.5Q257 223 257 194V97Q257 36 246 -5.5Q235 -47 209.5 -72.5Q184 -98 142 -109Q100 -120 37 -120H26Z" glyph-name="braceright.cap" horiz-adv-x="372" unicode="&#58518;" /><glyph d="M36 22Q75 22 87.5 32.5Q100 43 100 80V151Q100 205 111.5 239Q123 273 156 291Q123 308 111.5 342Q100 376 100 431V508Q100 544 87.5 554.5Q75 565 36 565V686H47Q100 686 135 677Q170 668 191 647.5Q212 627 221 593Q230 559 230 509V432Q230 407 232 391.5Q234 376 241.5 367Q249 358 263 355Q277 352 301 352V230Q277 230 263 227Q249 224 241.5 215Q234 206 232 190.5Q230 175 230 150V79Q230 28 221 -6Q212 -40 191 -60.5Q170 -81 135 -89.5Q100 -98 47 -98H36Z" glyph-name="braceright.smcp" horiz-adv-x="337" unicode="&#58526;" /><glyph d="M36 730H309V600H172V-100H309V-230H36Z" glyph-name="bracketleft" horiz-adv-x="345" unicode="[" /><glyph d="M36 840H309V710H172V10H309V-120H36Z" glyph-name="bracketleft.cap" horiz-adv-x="345" unicode="&#58515;" /><glyph d="M36 686H275V561H168V27H275V-98H36Z" glyph-name="bracketleft.smcp" horiz-adv-x="310" unicode="&#58523;" /><glyph d="M36 -100H173V600H36V730H309V-230H36Z" glyph-name="bracketright" horiz-adv-x="345" unicode="]" /><glyph d="M36 10H173V710H36V840H309V-120H36Z" glyph-name="bracketright.cap" horiz-adv-x="345" unicode="&#58516;" /><glyph d="M36 27H143V561H36V686H274V-98H36Z" glyph-name="bracketright.smcp" horiz-adv-x="310" unicode="&#58524;" /><glyph d="M235 545Q194 545 163.5 558Q133 571 113 593.5Q93 616 83.5 647.5Q74 679 74 715H159Q159 667 178.5 644Q198 621 235 619Q271 621 291 644Q311 667 311 715H397Q397 679 386 647.5Q375 616 354 593.5Q333 571 303 558Q273 545 235 545Z" glyph-name="breve" horiz-adv-x="472" unicode="&#728;" /><glyph d="M36 730H172V310H36ZM36 190H172V-230H36Z" glyph-name="brokenbar" horiz-adv-x="211" unicode="&#166;" /><glyph d="M36 840H172V420H36ZM36 300H172V-120H36Z" glyph-name="brokenbar.cap" horiz-adv-x="211" unicode="&#58469;" /><glyph d="M198 144Q175 144 155 153Q135 162 120 177Q105 192 96 212Q87 232 87 255Q87 278 96 298Q105 318 120 333Q135 348 155 357Q175 366 198 366Q221 366 241 357Q261 348 276 333Q291 318 300 298Q309 278 309 255Q309 232 300 212Q291 192 276 177Q261 162 241 153Q221 144 198 144Z" glyph-name="bullet" horiz-adv-x="395" unicode="&#8226;" /><glyph d="M198 254Q175 254 155 263Q135 272 120 287Q105 302 96 322Q87 342 87 365Q87 388 96 408Q105 428 120 443Q135 458 155 467Q175 476 198 476Q221 476 241 467Q261 458 276 443Q291 428 300 408Q309 388 309 365Q309 342 300 322Q291 302 276 287Q261 272 241 263Q221 254 198 254Z" glyph-name="bullet.cap" horiz-adv-x="395" unicode="&#58470;" /><glyph d="M0 20H927V0H0Z" glyph-name="bullseye" horiz-adv-x="927" unicode="&#9678;" /><glyph d="M324 -12Q260 -12 204.5 12Q149 36 108 77Q67 118 43.5 173.5Q20 229 20 292Q20 356 43.5 411.5Q67 467 108 508.5Q149 550 204.5 573.5Q260 597 324 597Q373 597 416.5 583.5Q460 570 496 546Q532 522 559 489Q586 456 603 416L482 365Q462 413 420.5 441.5Q379 470 325 470Q288 470 256.5 456Q225 442 201.5 418Q178 394 165 361.5Q152 329 152 292Q152 256 165 223.5Q178 191 201.5 167Q225 143 257 129Q289 115 326 115Q383 115 423.5 145.5Q464 176 484 224L605 172Q588 132 561 98Q534 64 498.5 39.5Q463 15 419 1.5Q375 -12 324 -12Z" glyph-name="c" horiz-adv-x="617" unicode="c" /><glyph d="M336 -8Q268 -8 211 16Q154 40 113.5 81.5Q73 123 50.5 178.5Q28 234 28 298Q28 363 51 419Q74 475 115.5 516Q157 557 213.5 580.5Q270 604 337 604Q422 604 491.5 563.5Q561 523 600 456L485 384Q464 424 425 448.5Q386 473 336 473Q298 473 266 459Q234 445 211.5 421.5Q189 398 176.5 366Q164 334 164 298Q164 262 176.5 230.5Q189 199 211.5 175Q234 151 265 137.5Q296 124 333 124Q388 124 426 151.5Q464 179 484 224L608 161Q570 86 501 39Q432 -8 336 -8Z" glyph-name="c.smcp" horiz-adv-x="623" unicode="&#57859;" /><glyph d="M391 815H517L367 645H276ZM324 -12Q260 -12 204.5 12Q149 36 108 77Q67 118 43.5 173.5Q20 229 20 292Q20 356 43.5 411.5Q67 467 108 508.5Q149 550 204.5 573.5Q260 597 324 597Q373 597 416.5 583.5Q460 570 496 546Q532 522 559 489Q586 456 603 416L482 365Q462 413 420.5 441.5Q379 470 325 470Q288 470 256.5 456Q225 442 201.5 418Q178 394 165 361.5Q152 329 152 292Q152 256 165 223.5Q178 191 201.5 167Q225 143 257 129Q289 115 326 115Q383 115 423.5 145.5Q464 176 484 224L605 172Q588 132 561 98Q534 64 498.5 39.5Q463 15 419 1.5Q375 -12 324 -12Z" glyph-name="cacute" horiz-adv-x="617" unicode="&#263;" /><glyph d="M403 816H529L379 646H288ZM336 -8Q268 -8 211 16Q154 40 113.5 81.5Q73 123 50.5 178.5Q28 234 28 298Q28 363 51 419Q74 475 115.5 516Q157 557 213.5 580.5Q270 604 337 604Q422 604 491.5 563.5Q561 523 600 456L485 384Q464 424 425 448.5Q386 473 336 473Q298 473 266 459Q234 445 211.5 421.5Q189 398 176.5 366Q164 334 164 298Q164 262 176.5 230.5Q189 199 211.5 175Q234 151 265 137.5Q296 124 333 124Q388 124 426 151.5Q464 179 484 224L608 161Q570 86 501 39Q432 -8 336 -8Z" glyph-name="cacute.smcp" horiz-adv-x="623" unicode="&#57908;" /><glyph d="M74 720H176L235 631L294 720H396L277 550H193Z" glyph-name="caron" horiz-adv-x="472" unicode="&#711;" /><glyph d="M214 720H323L272 549H189Z" glyph-name="caronSlovak" horiz-adv-x="472" unicode="&#58387;" /><glyph d="M324 -12Q260 -12 204.5 12Q149 36 108 77Q67 118 43.5 173.5Q20 229 20 292Q20 356 43.5 411.5Q67 467 108 508.5Q149 550 204.5 573.5Q260 597 324 597Q373 597 416.5 583.5Q460 570 496 546Q532 522 559 489Q586 456 603 416L482 365Q462 413 420.5 441.5Q379 470 325 470Q288 470 256.5 456Q225 442 201.5 418Q178 394 165 361.5Q152 329 152 292Q152 256 165 223.5Q178 191 201.5 167Q225 143 257 129Q289 115 326 115Q383 115 423.5 145.5Q464 176 484 224L605 172Q588 132 561 98Q534 64 498.5 39.5Q463 15 419 1.5Q375 -12 324 -12ZM172 815H274L333 726L392 815H494L375 645H291Z" glyph-name="ccaron" horiz-adv-x="617" unicode="&#269;" /><glyph d="M336 -8Q268 -8 211 16Q154 40 113.5 81.5Q73 123 50.5 178.5Q28 234 28 298Q28 363 51 419Q74 475 115.5 516Q157 557 213.5 580.5Q270 604 337 604Q422 604 491.5 563.5Q561 523 600 456L485 384Q464 424 425 448.5Q386 473 336 473Q298 473 266 459Q234 445 211.5 421.5Q189 398 176.5 366Q164 334 164 298Q164 262 176.5 230.5Q189 199 211.5 175Q234 151 265 137.5Q296 124 333 124Q388 124 426 151.5Q464 179 484 224L608 161Q570 86 501 39Q432 -8 336 -8ZM177 816H279L338 727L397 816H499L380 646H296Z" glyph-name="ccaron.smcp" horiz-adv-x="623" unicode="&#57910;" /><glyph d="M316 -245Q276 -245 238.5 -228.5Q201 -212 172 -186L250 -139Q267 -153 283.5 -163Q300 -173 326 -173Q348 -173 364.5 -164Q381 -155 381 -142Q381 -115 323 -115H273V-8Q218 1 172 28Q126 55 92 94.5Q58 134 39 184.5Q20 235 20 292Q20 356 43.5 411.5Q67 467 108 508.5Q149 550 204.5 573.5Q260 597 324 597Q373 597 416.5 583.5Q460 570 496 546Q532 522 559 489Q586 456 603 416L482 365Q462 413 420.5 441.5Q379 470 325 470Q288 470 256.5 456Q225 442 201.5 418Q178 394 165 361.5Q152 329 152 292Q152 256 165 223.5Q178 191 201.5 167Q225 143 257 129Q289 115 326 115Q383 115 423.5 145.5Q464 176 484 224L605 172Q573 97 510 47.5Q447 -2 357 -10V-58Q413 -56 442.5 -78.5Q472 -101 472 -138Q472 -161 460 -181Q448 -201 427 -215Q406 -229 377.5 -237Q349 -245 316 -245Z" glyph-name="ccedilla" horiz-adv-x="617" unicode="&#231;" /><glyph d="M327 -240Q287 -240 249.5 -223.5Q212 -207 183 -181L261 -134Q278 -148 294.5 -158Q311 -168 337 -168Q359 -168 375.5 -159Q392 -150 392 -137Q392 -110 334 -110H284V-4Q226 5 179 31.5Q132 58 98.5 98Q65 138 46.5 189Q28 240 28 298Q28 363 51 419Q74 475 115.5 516Q157 557 213.5 580.5Q270 604 337 604Q422 604 491.5 563.5Q561 523 600 456L485 384Q464 424 425 448.5Q386 473 336 473Q298 473 266 459Q234 445 211.5 421.5Q189 398 176.5 366Q164 334 164 298Q164 262 176.5 230.5Q189 199 211.5 175Q234 151 265 137.5Q296 124 333 124Q388 124 426 151.5Q464 179 484 224L608 161Q573 92 512.5 47Q452 2 368 -6V-53Q424 -51 453.5 -73.5Q483 -96 483 -133Q483 -156 471 -176Q459 -196 438 -210Q417 -224 388.5 -232Q360 -240 327 -240Z" glyph-name="ccedilla.smcp" horiz-adv-x="623" unicode="&#57912;" /><glyph d="M324 -12Q260 -12 204.5 12Q149 36 108 77Q67 118 43.5 173.5Q20 229 20 292Q20 356 43.5 411.5Q67 467 108 508.5Q149 550 204.5 573.5Q260 597 324 597Q373 597 416.5 583.5Q460 570 496 546Q532 522 559 489Q586 456 603 416L482 365Q462 413 420.5 441.5Q379 470 325 470Q288 470 256.5 456Q225 442 201.5 418Q178 394 165 361.5Q152 329 152 292Q152 256 165 223.5Q178 191 201.5 167Q225 143 257 129Q289 115 326 115Q383 115 423.5 145.5Q464 176 484 224L605 172Q588 132 561 98Q534 64 498.5 39.5Q463 15 419 1.5Q375 -12 324 -12ZM283 809H367L486 639H384L325 728L266 639H164Z" glyph-name="ccircumflex" horiz-adv-x="617" unicode="&#265;" /><glyph d="M336 -8Q268 -8 211 16Q154 40 113.5 81.5Q73 123 50.5 178.5Q28 234 28 298Q28 363 51 419Q74 475 115.5 516Q157 557 213.5 580.5Q270 604 337 604Q422 604 491.5 563.5Q561 523 600 456L485 384Q464 424 425 448.5Q386 473 336 473Q298 473 266 459Q234 445 211.5 421.5Q189 398 176.5 366Q164 334 164 298Q164 262 176.5 230.5Q189 199 211.5 175Q234 151 265 137.5Q296 124 333 124Q388 124 426 151.5Q464 179 484 224L608 161Q570 86 501 39Q432 -8 336 -8ZM296 816H380L499 646H397L338 735L279 646H177Z" glyph-name="ccircumflex.smcp" horiz-adv-x="623" unicode="&#57909;" /><glyph d="M324 -12Q260 -12 204.5 12Q149 36 108 77Q67 118 43.5 173.5Q20 229 20 292Q20 356 43.5 411.5Q67 467 108 508.5Q149 550 204.5 573.5Q260 597 324 597Q373 597 416.5 583.5Q460 570 496 546Q532 522 559 489Q586 456 603 416L482 365Q462 413 420.5 441.5Q379 470 325 470Q288 470 256.5 456Q225 442 201.5 418Q178 394 165 361.5Q152 329 152 292Q152 256 165 223.5Q178 191 201.5 167Q225 143 257 129Q289 115 326 115Q383 115 423.5 145.5Q464 176 484 224L605 172Q588 132 561 98Q534 64 498.5 39.5Q463 15 419 1.5Q375 -12 324 -12ZM244 713Q244 748 265.5 770Q287 792 323 792Q360 792 381 770Q402 748 402 713Q402 678 381 656.5Q360 635 323 635Q285 635 264.5 656.5Q244 678 244 713Z" glyph-name="cdotaccent" horiz-adv-x="617" unicode="&#267;" /><glyph d="M336 -8Q268 -8 211 16Q154 40 113.5 81.5Q73 123 50.5 178.5Q28 234 28 298Q28 363 51 419Q74 475 115.5 516Q157 557 213.5 580.5Q270 604 337 604Q422 604 491.5 563.5Q561 523 600 456L485 384Q464 424 425 448.5Q386 473 336 473Q298 473 266 459Q234 445 211.5 421.5Q189 398 176.5 366Q164 334 164 298Q164 262 176.5 230.5Q189 199 211.5 175Q234 151 265 137.5Q296 124 333 124Q388 124 426 151.5Q464 179 484 224L608 161Q570 86 501 39Q432 -8 336 -8ZM259 715Q259 750 280.5 772Q302 794 338 794Q375 794 396 772Q417 750 417 715Q417 680 396 658.5Q375 637 338 637Q300 637 279.5 658.5Q259 680 259 715Z" glyph-name="cdotaccent.smcp" horiz-adv-x="623" unicode="&#57911;" /><glyph d="M213 -240Q173 -240 135.5 -223.5Q98 -207 69 -181L147 -134Q164 -148 180.5 -158Q197 -168 223 -168Q245 -168 261.5 -159Q278 -150 278 -137Q278 -110 220 -110H170V0H254V-53Q310 -51 339.5 -73.5Q369 -96 369 -133Q369 -156 357 -176Q345 -196 324 -210Q303 -224 274.5 -232Q246 -240 213 -240Z" glyph-name="cedilla" horiz-adv-x="472" unicode="&#184;" /><glyph d="M234 0Q190 12 152.5 37Q115 62 88 97Q61 132 46 175Q31 218 31 266Q31 314 46.5 357Q62 400 89 435Q116 470 153 495Q190 520 234 532V663H370V535Q438 521 487.5 478.5Q537 436 563 375L442 323Q425 365 389 390Q353 415 306 415Q275 415 248.5 403.5Q222 392 202.5 371.5Q183 351 171.5 324Q160 297 160 266Q160 235 171.5 208Q183 181 202.5 160.5Q222 140 249 128.5Q276 117 307 117Q354 117 389.5 142.5Q425 168 442 208L563 157Q537 97 487.5 54Q438 11 370 -3V-130H234Z" glyph-name="cent" horiz-adv-x="588" unicode="&#162;" /><glyph d="M210 0Q169 11 134 34.5Q99 58 74 91Q49 124 35 164.5Q21 205 21 250Q21 295 35 335Q49 375 74 408Q99 441 134 465Q169 489 210 500V630H346V502Q407 488 452.5 448Q498 408 521 352L402 302Q387 338 355 360.5Q323 383 281 383Q254 383 230 372.5Q206 362 188.5 344Q171 326 161 302Q151 278 151 250Q151 222 161 198Q171 174 188.5 156Q206 138 230 127.5Q254 117 282 117Q323 117 355 140Q387 163 402 199L521 148Q498 91 453 51.5Q408 12 346 -2V-130H210Z" glyph-name="cent.LP" horiz-adv-x="538" unicode="&#58659;" /><glyph d="M234 0Q190 12 152.5 37Q115 62 88 97Q61 132 46 175Q31 218 31 266Q31 314 46.5 357Q62 400 89 435Q116 470 153 495Q190 520 234 532V663H370V535Q438 521 487.5 478.5Q537 436 563 375L442 323Q425 365 389 390Q353 415 306 415Q275 415 248.5 403.5Q222 392 202.5 371.5Q183 351 171.5 324Q160 297 160 266Q160 235 171.5 208Q183 181 202.5 160.5Q222 140 249 128.5Q276 117 307 117Q354 117 389.5 142.5Q425 168 442 208L563 157Q537 97 487.5 54Q438 11 370 -3V-130H234Z" glyph-name="cent.LT" horiz-adv-x="588" unicode="&#62564;" /><glyph d="M194 720H278L397 550H295L236 639L177 550H75Z" glyph-name="circumflex" horiz-adv-x="472" unicode="&#710;" /><glyph d="M336 0Q345 17 358.5 43Q372 69 386 101Q400 133 411.5 170.5Q423 208 427 248Q406 196 362 163Q318 130 260 130Q223 130 191 144Q159 158 135 182Q111 206 97 238Q83 270 83 307Q83 344 97 376Q111 408 135 432Q159 456 191 470Q223 484 260 484Q271 484 281.5 482Q292 480 302 477Q283 518 283 564Q283 600 296.5 632Q310 664 334 688Q358 712 390 726Q422 740 458 740Q494 740 526 726Q558 712 582 688Q606 664 620 632Q634 600 634 564Q634 519 615 476Q637 484 661 484Q698 484 730 470Q762 456 786 432Q810 408 823.5 376Q837 344 837 307Q837 270 823 238Q809 206 785 182Q761 158 729 144Q697 130 660 130Q602 130 559.5 163Q517 196 497 247Q502 208 514.5 170.5Q527 133 542 101Q557 69 571.5 43Q586 17 595 0Z" glyph-name="club" horiz-adv-x="920" unicode="&#9827;" /><glyph d="M22 69Q22 106 44 128.5Q66 151 104 151Q142 151 163.5 128.5Q185 106 185 69Q185 33 163 10.5Q141 -12 103 -12Q65 -12 43.5 10.5Q22 33 22 69ZM22 430Q22 467 44 489.5Q66 512 104 512Q142 512 163.5 489.5Q185 467 185 430Q185 394 163 371.5Q141 349 103 349Q65 349 43.5 371.5Q22 394 22 430Z" glyph-name="colon" horiz-adv-x="207" unicode=":" /><glyph d="M80 137H214V0H80ZM80 500H214V363H80Z" glyph-name="colon.T" horiz-adv-x="294" unicode="&#61828;" /><glyph d="M56 87H175L105 -117H21Z" glyph-name="comma" horiz-adv-x="207" unicode="," /><glyph d="M100 87H219L150 -117H66Z" glyph-name="comma.T" horiz-adv-x="294" unicode="&#61827;" /><glyph d="M155 -249 189 -45H308L238 -249Z" glyph-name="commaaccent" horiz-adv-x="473" unicode="&#58388;" /><glyph d="M395 -10Q317 -10 249 19.5Q181 49 130.5 99.5Q80 150 51 218.5Q22 287 22 365Q22 443 51 511Q80 579 130.5 630Q181 681 249 710.5Q317 740 395 740Q473 740 541 710.5Q609 681 660 630Q711 579 740 511Q769 443 769 365Q769 287 740 218.5Q711 150 660 99.5Q609 49 541 19.5Q473 -10 395 -10ZM395 94Q451 94 500 115.5Q549 137 585 173.5Q621 210 642 259.5Q663 309 663 365Q663 421 642 470.5Q621 520 585 556.5Q549 593 500 614.5Q451 636 395 636Q338 636 289.5 614.5Q241 593 205.5 556.5Q170 520 150 470.5Q130 421 130 365Q130 309 150 259.5Q170 210 205.5 173.5Q241 137 289.5 115.5Q338 94 395 94ZM401 163Q356 163 318.5 179Q281 195 254 222Q227 249 212 286Q197 323 197 365Q197 407 212.5 444Q228 481 255 508Q282 535 319.5 551Q357 567 401 567Q462 567 509.5 535.5Q557 504 579 457Q541 440 520.5 430.5Q500 421 490 417Q478 411 475 410Q470 429 451 444.5Q432 460 400 460Q361 460 334 432.5Q307 405 307 365Q307 325 334 297.5Q361 270 400 270Q431 270 451.5 286Q472 302 477 321L584 284Q561 233 513 198Q465 163 401 163Z" glyph-name="copyright" horiz-adv-x="790" unicode="&#169;" /><glyph d="M285 -10Q225 -10 178.5 7.5Q132 25 100.5 56.5Q69 88 52.5 132Q36 176 36 228V496Q36 548 54 592.5Q72 637 105 670Q138 703 184 721.5Q230 740 285 740Q341 740 387 721Q433 702 465.5 669Q498 636 515.5 591.5Q533 547 533 497V228Q533 174 516 130.5Q499 87 467 55.5Q435 24 389 7Q343 -10 285 -10ZM284 77Q321 77 350 88.5Q379 100 398.5 120.5Q418 141 428.5 168Q439 195 439 226V496Q439 567 399 610Q359 653 286 653Q249 653 220 641Q191 629 171 607.5Q151 586 141 557.5Q131 529 131 496V228Q131 164 170 120.5Q209 77 284 77ZM284 114Q227 114 197 147Q167 180 167 228V497Q167 547 198 581Q229 615 286 615Q341 615 371.5 582.5Q402 550 402 497V399H308V497Q308 520 285 520Q273 520 267 513.5Q261 507 261 497V227Q261 218 267 211.5Q273 205 285 205Q296 205 302 211.5Q308 218 308 227V341H402V227Q402 179 371.5 146.5Q341 114 284 114Z" glyph-name="copyright.LT" horiz-adv-x="569" unicode="&#62565;" /><glyph d="M170 435Q139 435 111.5 447Q84 459 64 479Q44 499 32 526.5Q20 554 20 585Q20 617 32 644.5Q44 672 64 692Q84 712 111.5 724Q139 736 170 736Q219 736 255 710.5Q291 685 308 646L222 607Q216 624 202 633.5Q188 643 171 643Q148 643 131.5 626Q115 609 115 585Q115 562 131.5 545Q148 528 171 528Q189 528 202.5 537.5Q216 547 222 563L309 526Q292 486 256 460.5Q220 435 170 435Z" glyph-name="cordinal" horiz-adv-x="324" unicode="&#57729;" /><glyph d="M170 435Q139 435 111.5 447Q84 459 64 479Q44 499 32 526.5Q20 554 20 585Q20 617 32 644.5Q44 672 64 692Q84 712 111.5 724Q139 736 170 736Q219 736 255 710.5Q291 685 308 646L222 607Q216 624 202 633.5Q188 643 171 643Q148 643 131.5 626Q115 609 115 585Q115 562 131.5 545Q148 528 171 528Q189 528 202.5 537.5Q216 547 222 563L309 526Q292 486 256 460.5Q220 435 170 435Z" glyph-name="cordinal.smcp" horiz-adv-x="324" unicode="&#58195;" /><glyph d="M390 102Q319 102 260 136L133 6L35 102L164 233Q148 262 139.5 294.5Q131 327 131 362Q131 397 140 430Q149 463 166 492L33 632L132 725L263 589Q291 605 323 613.5Q355 622 390 622Q425 622 456.5 613.5Q488 605 516 590L640 717L738 622L613 494Q630 465 639.5 431.5Q649 398 649 362Q649 325 639.5 291.5Q630 258 613 229L738 98L640 3L514 133Q457 102 390 102ZM390 229Q417 229 440.5 239.5Q464 250 481.5 268Q499 286 509 310.5Q519 335 519 362Q519 389 509 413.5Q499 438 481.5 456Q464 474 440.5 484.5Q417 495 390 495Q363 495 339.5 484.5Q316 474 299 456Q282 438 272 413.5Q262 389 262 362Q262 335 272 310.5Q282 286 299 268Q316 250 339.5 239.5Q363 229 390 229Z" glyph-name="currency" horiz-adv-x="773" unicode="&#164;" /><glyph d="M308 -12Q255 -12 203.5 8.5Q152 29 111 68Q70 107 45 163.5Q20 220 20 292Q20 365 44.5 421.5Q69 478 109.5 517Q150 556 202.5 576.5Q255 597 310 597Q367 597 416 575.5Q465 554 497 516V740H633V0H498V76Q466 35 416 11.5Q366 -12 308 -12ZM330 112Q368 112 400 126Q432 140 455 165Q478 190 491.5 223Q505 256 505 294Q505 331 491.5 364Q478 397 455 421.5Q432 446 400 460Q368 474 330 474Q293 474 260.5 460Q228 446 204 422Q180 398 166.5 365Q153 332 153 294Q153 256 166.5 222.5Q180 189 204 164.5Q228 140 260.5 126Q293 112 330 112Z" glyph-name="d" horiz-adv-x="671" unicode="d" /><glyph d="M37 596H211Q282 596 339.5 573Q397 550 437.5 510Q478 470 500 415.5Q522 361 522 298Q522 234 499 179.5Q476 125 435 85Q394 45 337.5 22.5Q281 0 214 0H37ZM170 472V124H207Q248 124 281.5 137.5Q315 151 338.5 174.5Q362 198 375 229.5Q388 261 388 298Q388 335 376 367Q364 399 341 422Q318 445 283 458.5Q248 472 203 472Z" glyph-name="d.smcp" horiz-adv-x="550" unicode="&#57860;" /><glyph d="M36 500H195V730H331V500H489V379H331V0H195V379H36Z" glyph-name="dagger" horiz-adv-x="526" unicode="&#8224;" /><glyph d="M36 555H195V730H331V555H489V435H331V304H489V184H331V0H195V184H36V304H195V435H36Z" glyph-name="daggerdbl" horiz-adv-x="526" unicode="&#8225;" /><glyph d="M308 -12Q255 -12 203.5 8.5Q152 29 111 68Q70 107 45 163.5Q20 220 20 292Q20 365 44.5 421.5Q69 478 109.5 517Q150 556 202.5 576.5Q255 597 310 597Q367 597 416 575.5Q465 554 497 516V740H633V0H498V76Q466 35 416 11.5Q366 -12 308 -12ZM330 112Q368 112 400 126Q432 140 455 165Q478 190 491.5 223Q505 256 505 294Q505 331 491.5 364Q478 397 455 421.5Q432 446 400 460Q368 474 330 474Q293 474 260.5 460Q228 446 204 422Q180 398 166.5 365Q153 332 153 294Q153 256 166.5 222.5Q180 189 204 164.5Q228 140 260.5 126Q293 112 330 112ZM679 732H788L737 561H654Z" glyph-name="dcaron" horiz-adv-x="742" unicode="&#271;" /><glyph d="M37 596H211Q282 596 339.5 573Q397 550 437.5 510Q478 470 500 415.5Q522 361 522 298Q522 234 499 179.5Q476 125 435 85Q394 45 337.5 22.5Q281 0 214 0H37ZM170 472V124H207Q248 124 281.5 137.5Q315 151 338.5 174.5Q362 198 375 229.5Q388 261 388 298Q388 335 376 367Q364 399 341 422Q318 445 283 458.5Q248 472 203 472ZM85 816H187L246 727L305 816H407L288 646H204Z" glyph-name="dcaron.smcp" horiz-adv-x="550" unicode="&#57913;" /><glyph d="M430 682H497V740H633V682H694V608H633V0H498V76Q466 35 416 11.5Q366 -12 308 -12Q255 -12 203.5 8.5Q152 29 111 68Q70 107 45 163.5Q20 220 20 292Q20 365 44.5 421.5Q69 478 109.5 517Q150 556 202.5 576.5Q255 597 310 597Q367 597 416 575.5Q465 554 497 516V608H430ZM330 112Q368 112 400 126Q432 140 455 165Q478 190 491.5 223Q505 256 505 294Q505 331 491.5 364Q478 397 455 421.5Q432 446 400 460Q368 474 330 474Q293 474 260.5 460Q228 446 204 422Q180 398 166.5 365Q153 332 153 294Q153 256 166.5 222.5Q180 189 204 164.5Q228 140 260.5 126Q293 112 330 112Z" glyph-name="dcroat" horiz-adv-x="679" unicode="&#273;" /><glyph d="M20 353H71V596H247Q318 596 375 573Q432 550 473 510Q514 470 536 415.5Q558 361 558 298Q558 234 535 179.5Q512 125 471 85Q430 45 373.5 22.5Q317 0 250 0H71V243H20ZM205 243V124H242Q284 124 317.5 137.5Q351 151 374.5 174.5Q398 198 410.5 229.5Q423 261 423 298Q423 335 411.5 367Q400 399 376.5 422Q353 445 318.5 458.5Q284 472 239 472H205V353H324V243Z" glyph-name="dcroat.smcp" horiz-adv-x="586" unicode="&#57916;" /><glyph d="M200 387Q163 387 131 401Q99 415 75 439Q51 463 37 495Q23 527 23 564Q23 600 37 632Q51 664 75 688Q99 712 131 726Q163 740 200 740Q237 740 269 726Q301 712 325 688Q349 664 362.5 632Q376 600 376 564Q376 527 362.5 495Q349 463 325 439Q301 415 269 401Q237 387 200 387ZM200 501Q226 501 244.5 519.5Q263 538 263 564Q263 590 244.5 608.5Q226 627 200 627Q174 627 155.5 608.5Q137 590 137 564Q137 538 155.5 519.5Q174 501 200 501Z" glyph-name="degree" horiz-adv-x="400" unicode="&#176;" /><glyph d="M460 791 787 390 460 -10 133 390Z" glyph-name="diamond" horiz-adv-x="920" unicode="&#9830;" /><glyph d="M69 619Q69 651 88.5 671Q108 691 141 691Q175 691 194 671Q213 651 213 619Q213 587 194 567.5Q175 548 141 548Q107 548 88 567.5Q69 587 69 619ZM260 619Q260 651 279.5 671Q299 691 332 691Q365 691 384.5 671Q404 651 404 619Q404 587 384.5 567.5Q365 548 332 548Q297 548 278.5 567.5Q260 587 260 619Z" glyph-name="dieresis" horiz-adv-x="473" unicode="&#168;" /><glyph d="M36 422H406V307H36ZM165 579H279V462H165ZM165 267H279V151H165Z" glyph-name="divide" horiz-adv-x="442" unicode="&#247;" /><glyph d="M564 217Q564 180 551 144Q538 108 513 78Q488 48 451.5 26.5Q415 5 368 -4V-120H232V-3Q160 9 106 42.5Q52 76 13 121L137 218Q154 189 179.5 167.5Q205 146 235 134V327Q200 338 165 353.5Q130 369 102.5 393Q75 417 57.5 450.5Q40 484 40 531Q40 569 54 602.5Q68 636 93.5 663Q119 690 154 709Q189 728 232 735V840H368V732Q425 721 466 695Q507 669 542 634L429 549Q404 585 364 603V429Q399 417 435 400.5Q471 384 499.5 359.5Q528 335 546 300Q564 265 564 217ZM426 218Q426 244 408.5 260.5Q391 277 364 289V130Q393 143 409.5 166.5Q426 190 426 218ZM176 536Q176 510 192 495Q208 480 235 469V610Q207 600 191.5 580.5Q176 561 176 536Z" glyph-name="dollar" horiz-adv-x="588" unicode="$" /><glyph d="M548 217Q548 179 535 143Q522 107 497.5 77Q473 47 437 25.5Q401 4 354 -5V-120H219V-3Q149 10 95.5 43Q42 76 3 121L127 219Q144 190 168.5 168.5Q193 147 222 135V328Q188 339 153.5 354Q119 369 92 393Q65 417 48 450.5Q31 484 31 531Q31 569 45 602.5Q59 636 83.5 663Q108 690 142.5 708.5Q177 727 219 735V840H354V732Q411 721 452 695Q493 669 526 634L414 549Q387 587 351 603V429Q386 417 421 400.5Q456 384 484.5 359.5Q513 335 530.5 300Q548 265 548 217ZM411 218Q411 244 394 260.5Q377 277 351 288V131Q380 144 395.5 167.5Q411 191 411 218ZM167 536Q167 510 181.5 495.5Q196 481 222 470V609Q196 598 181.5 579Q167 560 167 536Z" glyph-name="dollar.LP" horiz-adv-x="563" unicode="&#58658;" /><glyph d="M564 217Q564 180 551 144Q538 108 513 78Q488 48 451.5 26.5Q415 5 368 -4V-120H232V-3Q160 9 106 42.5Q52 76 13 121L137 218Q154 189 179.5 167.5Q205 146 235 134V327Q200 338 165 353.5Q130 369 102.5 393Q75 417 57.5 450.5Q40 484 40 531Q40 569 54 602.5Q68 636 93.5 663Q119 690 154 709Q189 728 232 735V840H368V732Q425 721 466 695Q507 669 542 634L429 549Q404 585 364 603V429Q399 417 435 400.5Q471 384 499.5 359.5Q528 335 546 300Q564 265 564 217ZM426 218Q426 244 408.5 260.5Q391 277 364 289V130Q393 143 409.5 166.5Q426 190 426 218ZM176 536Q176 510 192 495Q208 480 235 469V610Q207 600 191.5 580.5Q176 561 176 536Z" glyph-name="dollar.LT" horiz-adv-x="588" unicode="&#62566;" /><glyph d="M147 619Q147 654 168.5 676Q190 698 226 698Q263 698 284 676Q305 654 305 619Q305 584 284 562.5Q263 541 226 541Q188 541 167.5 562.5Q147 584 147 619Z" glyph-name="dotaccent" horiz-adv-x="473" unicode="&#729;" /><glyph d="M146 -119Q146 -84 167.5 -62Q189 -40 225 -40Q262 -40 283 -62Q304 -84 304 -119Q304 -154 283 -175.5Q262 -197 225 -197Q187 -197 166.5 -175.5Q146 -154 146 -119Z" glyph-name="dotbelow" horiz-adv-x="473" unicode="&#58389;" /><glyph d="M39 585H175V0H39Z" glyph-name="dotlessi" horiz-adv-x="214" unicode="&#305;" /><glyph d="M-82 -142Q-43 -142 -19 -138Q5 -134 18 -121.5Q31 -109 35 -86Q39 -63 39 -24V585H176V-25Q176 -95 164 -141.5Q152 -188 124 -216.5Q96 -245 50.5 -257Q5 -269 -63 -269H-82Z" glyph-name="dotlessj" horiz-adv-x="214" unicode="&#567;" /><glyph d="M36 730H172V-230H36ZM234 730H370V-230H234Z" glyph-name="doublebar" horiz-adv-x="406" unicode="&#8214;" /><glyph d="M36 840H172V-120H36ZM234 840H370V-120H234Z" glyph-name="doublebar.cap" horiz-adv-x="406" unicode="&#58468;" /><glyph d="M36 686H168V-98H36ZM229 686H361V-98H229Z" glyph-name="doublebar.smcp" horiz-adv-x="397" unicode="&#58474;" /><glyph d="M39 720H165L279 550H188ZM204 720H330L444 550H353Z" glyph-name="doublegrave" horiz-adv-x="472" unicode="&#58386;" /><glyph d="M329 -12Q260 -12 203 11.5Q146 35 105.5 76Q65 117 42.5 172.5Q20 228 20 291Q20 355 43.5 411Q67 467 108 508Q149 549 204.5 573Q260 597 324 597Q389 597 444.5 574.5Q500 552 540 511.5Q580 471 602.5 416Q625 361 625 296V245H149Q163 183 210 145Q257 107 329 107Q386 107 428 135Q470 163 491 210L602 146Q564 75 495.5 31.5Q427 -12 329 -12ZM324 478Q263 478 218.5 445Q174 412 156 358H488Q473 417 430 447.5Q387 478 324 478Z" glyph-name="e" horiz-adv-x="646" unicode="e" /><glyph d="M37 596H390V471H170V362H390V236H170V125H390V0H37Z" glyph-name="e.smcp" horiz-adv-x="423" unicode="&#57861;" /><glyph d="M329 -12Q260 -12 203 11.5Q146 35 105.5 76Q65 117 42.5 172.5Q20 228 20 291Q20 355 43.5 411Q67 467 108 508Q149 549 204.5 573Q260 597 324 597Q389 597 444.5 574.5Q500 552 540 511.5Q580 471 602.5 416Q625 361 625 296V245H149Q163 183 210 145Q257 107 329 107Q386 107 428 135Q470 163 491 210L602 146Q564 75 495.5 31.5Q427 -12 329 -12ZM324 478Q263 478 218.5 445Q174 412 156 358H488Q473 417 430 447.5Q387 478 324 478ZM394 815H520L370 645H279Z" glyph-name="eacute" horiz-adv-x="646" unicode="&#233;" /><glyph d="M37 596H390V471H170V362H390V236H170V125H390V0H37ZM276 816H402L252 646H161Z" glyph-name="eacute.smcp" horiz-adv-x="421" unicode="&#57917;" /><glyph d="M329 -12Q260 -12 203 11.5Q146 35 105.5 76Q65 117 42.5 172.5Q20 228 20 291Q20 355 43.5 411Q67 467 108 508Q149 549 204.5 573Q260 597 324 597Q389 597 444.5 574.5Q500 552 540 511.5Q580 471 602.5 416Q625 361 625 296V245H149Q163 183 210 145Q257 107 329 107Q386 107 428 135Q470 163 491 210L602 146Q564 75 495.5 31.5Q427 -12 329 -12ZM329 640Q288 640 257.5 653Q227 666 207 688.5Q187 711 177.5 742.5Q168 774 168 810H253Q253 762 272.5 739Q292 716 329 714Q365 716 385 739Q405 762 405 810H491Q491 774 480 742.5Q469 711 448 688.5Q427 666 397 653Q367 640 329 640ZM324 478Q263 478 218.5 445Q174 412 156 358H488Q473 417 430 447.5Q387 478 324 478Z" glyph-name="ebreve" horiz-adv-x="646" unicode="&#277;" /><glyph d="M37 596H390V471H170V362H390V236H170V125H390V0H37ZM225 638Q184 638 153.5 651Q123 664 103 686.5Q83 709 73.5 740.5Q64 772 64 808H149Q149 760 168.5 737Q188 714 225 712Q261 714 281 737Q301 760 301 808H387Q387 772 376 740.5Q365 709 344 686.5Q323 664 293 651Q263 638 225 638Z" glyph-name="ebreve.smcp" horiz-adv-x="421" unicode="&#57923;" /><glyph d="M329 -12Q260 -12 203 11.5Q146 35 105.5 76Q65 117 42.5 172.5Q20 228 20 291Q20 355 43.5 411Q67 467 108 508Q149 549 204.5 573Q260 597 324 597Q389 597 444.5 574.5Q500 552 540 511.5Q580 471 602.5 416Q625 361 625 296V245H149Q163 183 210 145Q257 107 329 107Q386 107 428 135Q470 163 491 210L602 146Q564 75 495.5 31.5Q427 -12 329 -12ZM324 478Q263 478 218.5 445Q174 412 156 358H488Q473 417 430 447.5Q387 478 324 478ZM166 810H268L327 721L386 810H488L369 640H285Z" glyph-name="ecaron" horiz-adv-x="646" unicode="&#283;" /><glyph d="M37 596H390V471H170V362H390V236H170V125H390V0H37ZM59 816H161L220 727L279 816H381L262 646H178Z" glyph-name="ecaron.smcp" horiz-adv-x="421" unicode="&#57921;" /><glyph d="M329 -12Q260 -12 203 11.5Q146 35 105.5 76Q65 117 42.5 172.5Q20 228 20 291Q20 355 43.5 411Q67 467 108 508Q149 549 204.5 573Q260 597 324 597Q389 597 444.5 574.5Q500 552 540 511.5Q580 471 602.5 416Q625 361 625 296V245H149Q163 183 210 145Q257 107 329 107Q386 107 428 135Q470 163 491 210L602 146Q564 75 495.5 31.5Q427 -12 329 -12ZM324 478Q263 478 218.5 445Q174 412 156 358H488Q473 417 430 447.5Q387 478 324 478ZM287 809H371L490 639H388L329 728L270 639H168Z" glyph-name="ecircumflex" horiz-adv-x="646" unicode="&#234;" /><glyph d="M37 596H390V471H170V362H390V236H170V125H390V0H37ZM174 816H258L377 646H275L216 735L157 646H55Z" glyph-name="ecircumflex.smcp" horiz-adv-x="421" unicode="&#57919;" /><glyph d="M329 -12Q260 -12 203 11.5Q146 35 105.5 76Q65 117 42.5 172.5Q20 228 20 291Q20 355 43.5 411Q67 467 108 508Q149 549 204.5 573Q260 597 324 597Q389 597 444.5 574.5Q500 552 540 511.5Q580 471 602.5 416Q625 361 625 296V245H149Q163 183 210 145Q257 107 329 107Q386 107 428 135Q470 163 491 210L602 146Q564 75 495.5 31.5Q427 -12 329 -12ZM324 478Q263 478 218.5 445Q174 412 156 358H488Q473 417 430 447.5Q387 478 324 478ZM156 703Q156 735 175.5 755Q195 775 228 775Q262 775 281 755Q300 735 300 703Q300 671 281 651.5Q262 632 228 632Q194 632 175 651.5Q156 671 156 703ZM347 703Q347 735 366.5 755Q386 775 419 775Q452 775 471.5 755Q491 735 491 703Q491 671 471.5 651.5Q452 632 419 632Q384 632 365.5 651.5Q347 671 347 703Z" glyph-name="edieresis" horiz-adv-x="646" unicode="&#235;" /><glyph d="M37 596H390V471H170V362H390V236H170V125H390V0H37ZM48 715Q48 747 67.5 767Q87 787 120 787Q154 787 173 767Q192 747 192 715Q192 683 173 663.5Q154 644 120 644Q86 644 67 663.5Q48 683 48 715ZM239 715Q239 747 258.5 767Q278 787 311 787Q344 787 363.5 767Q383 747 383 715Q383 683 363.5 663.5Q344 644 311 644Q276 644 257.5 663.5Q239 683 239 715Z" glyph-name="edieresis.smcp" horiz-adv-x="421" unicode="&#57904;" /><glyph d="M329 -12Q260 -12 203 11.5Q146 35 105.5 76Q65 117 42.5 172.5Q20 228 20 291Q20 355 43.5 411Q67 467 108 508Q149 549 204.5 573Q260 597 324 597Q389 597 444.5 574.5Q500 552 540 511.5Q580 471 602.5 416Q625 361 625 296V245H149Q163 183 210 145Q257 107 329 107Q386 107 428 135Q470 163 491 210L602 146Q564 75 495.5 31.5Q427 -12 329 -12ZM324 478Q263 478 218.5 445Q174 412 156 358H488Q473 417 430 447.5Q387 478 324 478ZM247 708Q247 743 268.5 765Q290 787 326 787Q363 787 384 765Q405 743 405 708Q405 673 384 651.5Q363 630 326 630Q288 630 267.5 651.5Q247 673 247 708Z" glyph-name="edotaccent" horiz-adv-x="646" unicode="&#279;" /><glyph d="M37 596H390V471H170V362H390V236H170V125H390V0H37ZM136 715Q136 750 157.5 772Q179 794 215 794Q252 794 273 772Q294 750 294 715Q294 680 273 658.5Q252 637 215 637Q177 637 156.5 658.5Q136 680 136 715Z" glyph-name="edotaccent.smcp" horiz-adv-x="421" unicode="&#57926;" /><glyph d="M329 -12Q260 -12 203 11.5Q146 35 105.5 76Q65 117 42.5 172.5Q20 228 20 291Q20 355 43.5 411Q67 467 108 508Q149 549 204.5 573Q260 597 324 597Q389 597 444.5 574.5Q500 552 540 511.5Q580 471 602.5 416Q625 361 625 296V245H149Q163 183 210 145Q257 107 329 107Q386 107 428 135Q470 163 491 210L602 146Q564 75 495.5 31.5Q427 -12 329 -12ZM324 478Q263 478 218.5 445Q174 412 156 358H488Q473 417 430 447.5Q387 478 324 478ZM156 810H283L397 640H306Z" glyph-name="egrave" horiz-adv-x="646" unicode="&#232;" /><glyph d="M37 596H390V471H170V362H390V236H170V125H390V0H37ZM40 816H167L281 646H190Z" glyph-name="egrave.smcp" horiz-adv-x="421" unicode="&#57918;" /><glyph d="M293 -10Q168 -10 101 51Q34 112 34 218Q34 275 57.5 317.5Q81 360 124 389Q93 415 76 450.5Q59 486 59 532Q59 579 76 617.5Q93 656 124.5 683Q156 710 200 725Q244 740 298 740Q351 740 394.5 725Q438 710 469.5 683Q501 656 518 617.5Q535 579 535 532Q535 485 516.5 449.5Q498 414 466 388Q508 359 531 316.5Q554 274 554 218Q554 112 485.5 51Q417 -10 293 -10ZM293 110Q358 110 391 141.5Q424 173 424 218Q424 263 391.5 294.5Q359 326 296 326Q232 326 198.5 294.5Q165 263 165 218Q165 173 196 141.5Q227 110 293 110ZM295 440Q352 440 381.5 467Q411 494 411 532Q411 570 382 597.5Q353 625 299 625Q244 625 213.5 597.5Q183 570 183 532Q183 493 210.5 466.5Q238 440 295 440Z" glyph-name="eight" horiz-adv-x="588" unicode="8" /><glyph d="M263 -10Q211 -10 167.5 6Q124 22 92 52Q60 82 42 124.5Q24 167 24 219Q24 274 47 317.5Q70 361 108 390Q81 416 65 452Q49 488 49 533Q49 580 65.5 618.5Q82 657 111 684Q140 711 180 725.5Q220 740 267 740Q314 740 353.5 725.5Q393 711 421.5 684Q450 657 466.5 618.5Q483 580 483 533Q483 488 466.5 451.5Q450 415 421 389Q458 360 480 316.5Q502 273 502 219Q502 167 484 124.5Q466 82 434 52Q402 22 358 6Q314 -10 263 -10ZM262 111Q285 111 304.5 119.5Q324 128 339 142.5Q354 157 362.5 177Q371 197 371 219Q371 242 363 261.5Q355 281 340.5 295.5Q326 310 307 318.5Q288 327 265 327Q242 327 222 318.5Q202 310 187 295Q172 280 163.5 260.5Q155 241 155 219Q155 197 163 177Q171 157 185.5 142.5Q200 128 219.5 119.5Q239 111 262 111ZM264 441Q304 441 331 468Q358 495 358 533Q358 571 332 598Q306 625 268 625Q228 625 201 598Q174 571 174 533Q174 494 199.5 467.5Q225 441 264 441Z" glyph-name="eight.LP" horiz-adv-x="526" unicode="&#58685;" /><glyph d="M293 -10Q168 -10 101 51Q34 112 34 218Q34 275 57.5 317.5Q81 360 124 389Q93 415 76 450.5Q59 486 59 532Q59 579 76 617.5Q93 656 124.5 683Q156 710 200 725Q244 740 298 740Q351 740 394.5 725Q438 710 469.5 683Q501 656 518 617.5Q535 579 535 532Q535 485 516.5 449.5Q498 414 466 388Q508 359 531 316.5Q554 274 554 218Q554 112 485.5 51Q417 -10 293 -10ZM293 110Q358 110 391 141.5Q424 173 424 218Q424 263 391.5 294.5Q359 326 296 326Q232 326 198.5 294.5Q165 263 165 218Q165 173 196 141.5Q227 110 293 110ZM295 440Q352 440 381.5 467Q411 494 411 532Q411 570 382 597.5Q353 625 299 625Q244 625 213.5 597.5Q183 570 183 532Q183 493 210.5 466.5Q238 440 295 440Z" glyph-name="eight.LT" horiz-adv-x="588" unicode="&#58696;" /><glyph d="M163 -6Q131 -6 104 3.5Q77 13 57 31Q37 49 25.5 75Q14 101 14 134Q14 160 24.5 183.5Q35 207 54 225Q26 256 26 301Q26 362 64.5 395Q103 428 163 428Q224 428 263 395Q302 362 302 301Q302 279 295 260Q288 241 276 226Q293 209 303 186Q313 163 313 134Q313 101 301.5 75Q290 49 270 31Q250 13 222.5 3.5Q195 -6 163 -6ZM163 90Q183 90 195.5 102.5Q208 115 208 134Q208 151 195.5 163.5Q183 176 163 176Q143 176 131 163.5Q119 151 119 134Q119 115 131 102.5Q143 90 163 90ZM163 266Q181 266 191 276Q201 286 201 301Q201 315 191.5 325.5Q182 336 164 336Q146 336 136.5 325.5Q127 315 127 301Q127 286 136.5 276Q146 266 163 266Z" glyph-name="eight.inf" horiz-adv-x="328" unicode="&#58745;" /><glyph d="M900 730H1056L529 0H373ZM1238 -6Q1201 -6 1171 6Q1141 18 1119 39Q1097 60 1085 88.5Q1073 117 1073 150Q1073 182 1085 214.5Q1097 247 1114 273L1208 422H1337L1261 303Q1291 302 1316.5 291Q1342 280 1361.5 260Q1381 240 1392 212.5Q1403 185 1403 150Q1403 117 1391 88.5Q1379 60 1357 39Q1335 18 1304.5 6Q1274 -6 1238 -6ZM14 412H95V578Q84 564 68 558Q52 552 32 552H26V659H29Q50 659 63.5 666Q77 673 85 683.5Q93 694 96 706.5Q99 719 99 730H208V412H286V308H14ZM795 104H876V270Q865 256 849 250Q833 244 813 244H807V351H810Q831 351 844.5 358Q858 365 866 375.5Q874 386 877 398.5Q880 411 880 422H989V104H1067V0H795ZM301 412H382V579Q372 565 355 558.5Q338 552 318 552H312V659H315Q336 659 349.5 666Q363 673 371.5 683.5Q380 694 383 706.5Q386 719 386 730H494V412H573V308H301ZM1238 98Q1261 98 1276.5 113.5Q1292 129 1292 152Q1292 174 1276.5 189.5Q1261 205 1238 205Q1215 205 1200 189.5Q1185 174 1185 151Q1185 129 1200 113.5Q1215 98 1238 98Z" glyph-name="elevensixteenths" horiz-adv-x="1414" unicode="&#61984;" /><glyph d="M33 62Q33 95 53 115.5Q73 136 107 136Q142 136 161 115.5Q180 95 180 62Q180 30 160.5 9.5Q141 -11 106 -11Q72 -11 52.5 9.5Q33 30 33 62ZM215 62Q215 95 235 115.5Q255 136 289 136Q324 136 343 115.5Q362 95 362 62Q362 30 342.5 9.5Q323 -11 288 -11Q254 -11 234.5 9.5Q215 30 215 62ZM397 62Q397 95 417 115.5Q437 136 471 136Q506 136 525 115.5Q544 95 544 62Q544 30 524.5 9.5Q505 -11 470 -11Q436 -11 416.5 9.5Q397 30 397 62Z" glyph-name="ellipsis" horiz-adv-x="577" unicode="&#8230;" /><glyph d="M329 -12Q260 -12 203 11.5Q146 35 105.5 76Q65 117 42.5 172.5Q20 228 20 291Q20 355 43.5 411Q67 467 108 508Q149 549 204.5 573Q260 597 324 597Q389 597 444.5 574.5Q500 552 540 511.5Q580 471 602.5 416Q625 361 625 296V245H149Q163 183 210 145Q257 107 329 107Q386 107 428 135Q470 163 491 210L602 146Q564 75 495.5 31.5Q427 -12 329 -12ZM324 478Q263 478 218.5 445Q174 412 156 358H488Q473 417 430 447.5Q387 478 324 478ZM199 729H463V643H199Z" glyph-name="emacron" horiz-adv-x="646" unicode="&#275;" /><glyph d="M37 596H390V471H170V362H390V236H170V125H390V0H37ZM85 732H349V646H85Z" glyph-name="emacron.smcp" horiz-adv-x="421" unicode="&#57922;" /><glyph d="M36 312H637V197H36Z" glyph-name="emdash" horiz-adv-x="673" unicode="&#8212;" /><glyph d="M36 416H637V302H36Z" glyph-name="emdash.cap" horiz-adv-x="673" unicode="&#58502;" /><glyph d="M36 312H437V197H36Z" glyph-name="endash" horiz-adv-x="473" unicode="&#8211;" /><glyph d="M36 416H437V302H36Z" glyph-name="endash.cap" horiz-adv-x="473" unicode="&#58500;" /><glyph d="M322 -142Q361 -142 385 -138Q409 -134 422 -121.5Q435 -109 439 -86Q443 -63 443 -24V333Q443 401 410 440.5Q377 480 311 480Q253 480 213.5 439Q174 398 174 321V0H39V585H173V513Q202 551 246.5 574Q291 597 348 597Q457 597 518.5 531Q580 465 580 347V-25Q580 -95 568 -141.5Q556 -188 528.5 -216.5Q501 -245 455.5 -257Q410 -269 342 -269H322Z" glyph-name="eng" horiz-adv-x="618" unicode="&#331;" /><glyph d="M313 -105Q345 -105 363.5 -102Q382 -99 392 -89Q402 -79 405 -61Q408 -43 408 -13V6L170 376V0H37V596H182L409 242V596H542V-14Q542 -75 531.5 -116.5Q521 -158 496.5 -183Q472 -208 431.5 -219Q391 -230 332 -230H313Z" glyph-name="eng.smcp" horiz-adv-x="579" unicode="&#58155;" /><glyph d="M343 -224Q278 -224 238.5 -192.5Q199 -161 199 -115Q199 -87 212.5 -60.5Q226 -34 263 -6Q208 5 163 31.5Q118 58 86.5 97.5Q55 137 37.5 186.5Q20 236 20 291Q20 355 43.5 411Q67 467 108 508Q149 549 204.5 573Q260 597 324 597Q389 597 444.5 574.5Q500 552 540 511.5Q580 471 602.5 416Q625 361 625 296V245H149Q163 183 210 145Q257 107 329 107Q386 107 428 135Q470 163 491 210L602 146Q574 95 531 57.5Q488 20 429 2Q389 -25 363.5 -42Q338 -59 324 -71Q310 -83 305 -91.5Q300 -100 300 -110Q300 -127 313 -134Q326 -141 343 -141Q363 -141 376 -132Q389 -123 403 -112L482 -166Q456 -190 417.5 -207Q379 -224 343 -224ZM324 478Q263 478 218.5 445Q174 412 156 358H488Q473 417 430 447.5Q387 478 324 478Z" glyph-name="eogonek" horiz-adv-x="646" unicode="&#281;" /><glyph d="M37 596H390V471H170V362H390V236H170V125H390V0Q349 -27 323.5 -44.5Q298 -62 284 -74Q270 -86 265 -94.5Q260 -103 260 -113Q260 -130 273 -137Q286 -144 303 -144Q323 -144 336 -135Q349 -126 363 -115L442 -169Q416 -193 377.5 -210Q339 -227 303 -227Q238 -227 198.5 -195.5Q159 -164 159 -118Q159 -88 175 -59.5Q191 -31 236 0H37Z" glyph-name="eogonek.smcp" horiz-adv-x="421" unicode="&#57929;" /><glyph d="M36 504H406V389H36ZM36 337H406V222H36Z" glyph-name="equal" horiz-adv-x="442" unicode="=" /><glyph d="M14 304H227V218H14ZM14 202H227V115H14Z" glyph-name="equal.inf" horiz-adv-x="241" unicode="&#58749;" /><glyph d="M36 420H406V305H36ZM36 253H406V139H36ZM36 587H406V472H36Z" glyph-name="equivalence" horiz-adv-x="442" unicode="&#8801;" /><glyph d="M249 718Q215 744 175.5 773Q136 802 89 834H282Q299 821 314 808.5Q329 796 343 784L414 834H540L400 735Q462 678 505.5 625Q549 572 576 518.5Q603 465 615 409.5Q627 354 627 292Q627 231 603.5 175.5Q580 120 539 78.5Q498 37 442.5 12.5Q387 -12 323 -12Q262 -12 207 10.5Q152 33 110.5 74Q69 115 44.5 172Q20 229 20 297Q20 360 44 414.5Q68 469 107.5 509Q147 549 198.5 572Q250 595 305 595Q343 595 369.5 586.5Q396 578 416 563Q376 615 308 671L244 626H116ZM323 115Q359 115 390 129Q421 143 444 167Q467 191 480 223.5Q493 256 493 292Q493 329 480 361.5Q467 394 444 418Q421 442 390 456Q359 470 323 470Q287 470 255.5 456Q224 442 201.5 418Q179 394 166 361.5Q153 329 153 292Q153 256 166 223.5Q179 191 201.5 167Q224 143 255.5 129Q287 115 323 115Z" glyph-name="eth" horiz-adv-x="661" unicode="&#240;" /><glyph d="M20 353H71V596H247Q318 596 375 573Q432 550 473 510Q514 470 536 415.5Q558 361 558 298Q558 234 535 179.5Q512 125 471 85Q430 45 373.5 22.5Q317 0 250 0H71V243H20ZM205 243V124H242Q284 124 317.5 137.5Q351 151 374.5 174.5Q398 198 410.5 229.5Q423 261 423 298Q423 335 411.5 367Q400 399 376.5 422Q353 445 318.5 458.5Q284 472 239 472H205V353H324V243Z" glyph-name="eth.smcp" horiz-adv-x="586" unicode="&#58156;" /><glyph d="M68 198Q61 243 55.5 294.5Q50 346 46 400Q42 454 39.5 508.5Q37 563 37 613V730H171V613Q171 563 169 508.5Q167 454 163 400Q159 346 153.5 294.5Q148 243 141 198ZM22 69Q22 106 44 128.5Q66 151 104 151Q142 151 163.5 128.5Q185 106 185 69Q185 33 163 10.5Q141 -12 103 -12Q65 -12 43.5 10.5Q22 33 22 69Z" glyph-name="exclam" horiz-adv-x="209" unicode="!" /><glyph d="M37 -113Q37 -63 39.5 -8.5Q42 46 46 100Q50 154 55.5 206Q61 258 68 303H141Q148 258 153.5 206Q159 154 163 100Q167 46 169 -8.5Q171 -63 171 -113V-230H37ZM22 430Q22 467 44 489.5Q66 512 104 512Q142 512 163.5 489.5Q185 467 185 430Q185 394 163 371.5Q141 349 103 349Q65 349 43.5 371.5Q22 394 22 430Z" glyph-name="exclamdown" horiz-adv-x="209" unicode="&#161;" /><glyph d="M37 117Q37 167 39.5 221.5Q42 276 46 330Q50 384 55.5 436Q61 488 68 533H141Q148 488 153.5 436Q159 384 163 330Q167 276 169 221.5Q171 167 171 117V0H37ZM22 663Q22 700 44 722.5Q66 745 104 745Q142 745 163.5 722.5Q185 700 185 663Q185 627 163 604.5Q141 582 103 582Q65 582 43.5 604.5Q22 627 22 663Z" glyph-name="exclamdown.cap" horiz-adv-x="209" unicode="&#58433;" /><glyph d="M17 585H116V586Q116 649 129.5 693.5Q143 738 172 766Q201 794 247.5 807Q294 820 361 820H373V695Q333 695 309 690Q285 685 272.5 672Q260 659 256.5 638Q253 617 253 585H373V464H253V0H116V464H17Z" glyph-name="f" horiz-adv-x="391" unicode="f" /><glyph d="M37 596H377V471H170V362H377V236H170V0H37Z" glyph-name="f.smcp" horiz-adv-x="408" unicode="&#57862;" /><glyph d="M26 500H111V514Q111 575 121.5 616.5Q132 658 157.5 683Q183 708 225 719Q267 730 329 730H340V605Q308 605 289 602Q270 599 260.5 589Q251 579 248 561Q245 543 245 513V500H340V380H245V0H111V380H26ZM391 500H525V0H391ZM391 689H525V552H391Z" glyph-name="fi" horiz-adv-x="561" unicode="&#64257;" /><glyph d="M896 730H1053L526 0H369ZM1234 -6Q1198 -6 1167.5 6Q1137 18 1115 39Q1093 60 1081 88.5Q1069 117 1069 150Q1069 182 1081.5 214.5Q1094 247 1111 273L1205 422H1333L1257 303Q1287 302 1313 291Q1339 280 1358 260Q1377 240 1388 212.5Q1399 185 1399 150Q1399 117 1387 88.5Q1375 60 1353.5 39Q1332 18 1301.5 6Q1271 -6 1234 -6ZM443 302Q391 302 352 323Q313 344 292 380L400 437Q413 408 444 408Q462 408 473.5 419.5Q485 431 485 450Q485 468 473 479Q461 490 442 490Q428 490 416 482Q404 474 399 463L297 498L329 730H570V627H415L409 582Q419 586 431 588.5Q443 591 458 591Q521 591 559 554Q597 517 597 450Q597 417 585.5 389.5Q574 362 553 342.5Q532 323 504 312.5Q476 302 443 302ZM791 104H872V270Q861 256 845 250Q829 244 809 244H803V351H806Q827 351 840.5 358Q854 365 862 375.5Q870 386 873 398.5Q876 411 876 422H985V104H1063V0H791ZM14 412H95V578Q84 564 68 558Q52 552 32 552H26V659H29Q50 659 63.5 666Q77 673 85 683.5Q93 694 96 706.5Q99 719 99 730H208V412H286V308H14ZM1234 98Q1257 98 1273 113.5Q1289 129 1289 152Q1289 174 1273 189.5Q1257 205 1234 205Q1211 205 1196.5 189.5Q1182 174 1182 151Q1182 129 1196.5 113.5Q1211 98 1234 98Z" glyph-name="fifteensixteenths" horiz-adv-x="1410" unicode="&#61986;" /><glyph d="M36 312H587V197H36Z" glyph-name="figuredash" horiz-adv-x="623" unicode="&#8210;" /><glyph d="M36 416H587V302H36Z" glyph-name="figuredash.cap" horiz-adv-x="623" unicode="&#58503;" /><glyph d="M270 -10Q222 -10 182.5 1.5Q143 13 111.5 32.5Q80 52 57.5 77.5Q35 103 21 130L147 203Q163 168 192.5 141.5Q222 115 271 115Q293 115 313.5 123.5Q334 132 349.5 147Q365 162 374 183.5Q383 205 383 230Q383 281 352.5 316Q322 351 268 351Q225 351 197.5 330Q170 309 151 277L30 339L82 730H488V603H190L169 441Q190 455 219 465Q248 475 283 475Q332 475 375 459Q418 443 450.5 412Q483 381 501.5 335.5Q520 290 520 230Q520 177 501.5 132.5Q483 88 449.5 56.5Q416 25 370 7.5Q324 -10 270 -10Z" glyph-name="five" horiz-adv-x="541" unicode="5" /><glyph d="M270 -10Q222 -10 182.5 1.5Q143 13 111.5 32.5Q80 52 57.5 77.5Q35 103 21 130L147 203Q163 168 192.5 141.5Q222 115 271 115Q293 115 313.5 123.5Q334 132 349.5 147Q365 162 374 183.5Q383 205 383 230Q383 281 352.5 316Q322 351 268 351Q225 351 197.5 330Q170 309 151 277L30 339L82 730H488V603H190L169 441Q190 455 219 465Q248 475 283 475Q332 475 375 459Q418 443 450.5 412Q483 381 501.5 335.5Q520 290 520 230Q520 177 501.5 132.5Q483 88 449.5 56.5Q416 25 370 7.5Q324 -10 270 -10Z" glyph-name="five.LP" horiz-adv-x="541" unicode="&#58682;" /><glyph d="M293 -10Q191 -10 125 30.5Q59 71 27 132L158 208Q174 166 209 140.5Q244 115 295 115Q320 115 342.5 124.5Q365 134 382.5 151.5Q400 169 410 193Q420 217 420 245Q420 273 411 297.5Q402 322 385 340Q368 358 344.5 368.5Q321 379 291 379Q243 379 212.5 359Q182 339 161 307L39 369L91 730H525V603H199L179 469Q202 483 234 493.5Q266 504 311 504Q361 504 405.5 488Q450 472 484 439.5Q518 407 537.5 358.5Q557 310 557 244Q557 190 537.5 143.5Q518 97 483 63Q448 29 399.5 9.5Q351 -10 293 -10Z" glyph-name="five.LT" horiz-adv-x="588" unicode="&#58693;" /><glyph d="M157 -6Q105 -6 65.5 15Q26 36 5 72L113 129Q126 100 157 100Q176 100 187.5 111.5Q199 123 199 142Q199 160 187 171Q175 182 155 182Q141 182 129 174Q117 166 112 155L10 190L42 422H284V319H129L122 274Q132 278 144 280.5Q156 283 171 283Q234 283 272 246Q310 209 310 142Q310 109 298.5 81.5Q287 54 266.5 34.5Q246 15 218 4.5Q190 -6 157 -6Z" glyph-name="five.inf" horiz-adv-x="320" unicode="&#58742;" /><glyph d="M610 730H766L239 0H83ZM947 -6Q911 -6 880.5 6Q850 18 828 39Q806 60 794 88.5Q782 117 782 150Q782 182 794.5 214.5Q807 247 823 273L917 422H1046L970 303Q1000 302 1026 291Q1052 280 1071 260Q1090 240 1101 212.5Q1112 185 1112 150Q1112 117 1100 88.5Q1088 60 1066 39Q1044 18 1013.5 6Q983 -6 947 -6ZM157 302Q105 302 65.5 323Q26 344 5 380L113 437Q126 408 157 408Q176 408 187.5 419.5Q199 431 199 450Q199 468 187 479Q175 490 155 490Q141 490 129 482Q117 474 112 463L10 498L42 730H284V627H129L122 582Q132 586 144 588.5Q156 591 171 591Q234 591 272 554Q310 517 310 450Q310 417 298.5 389.5Q287 362 266.5 342.5Q246 323 218 312.5Q190 302 157 302ZM504 104H585V270Q574 256 558 250Q542 244 522 244H516V351H519Q540 351 553.5 358Q567 365 575 375.5Q583 386 586 398.5Q589 411 589 422H698V104H776V0H504ZM947 98Q970 98 986 113.5Q1002 129 1002 152Q1002 174 986 189.5Q970 205 947 205Q924 205 909.5 189.5Q895 174 895 151Q895 129 909.5 113.5Q924 98 947 98Z" glyph-name="fivesixteenths" horiz-adv-x="1124" unicode="&#61975;" /><glyph d="M26 500H111V514Q111 575 121.5 616.5Q132 658 157.5 683Q183 708 225 719Q267 730 329 730H340V605Q308 605 289 602Q270 599 260.5 589Q251 579 248 561Q245 543 245 513V500H340V380H245V0H111V380H26ZM391 730H525V0H391Z" glyph-name="fl" horiz-adv-x="561" unicode="&#64258;" /><glyph d="M48 425H239L264 514Q281 576 306 617.5Q331 659 364 684Q397 709 439 719.5Q481 730 533 730H543V605Q509 605 485.5 601Q462 597 445.5 586.5Q429 576 419 558Q409 540 401 513L376 425H541V305H342L317 216Q300 156 278 115Q256 74 226 48.5Q196 23 157 11.5Q118 0 68 0H46V125Q107 125 136.5 145Q166 165 180 217L205 305H48Z" glyph-name="florin" horiz-adv-x="588" unicode="&#402;" /><glyph d="M38 425H205L228 514Q245 579 270.5 621Q296 663 327.5 687Q359 711 395.5 720.5Q432 730 471 730H482V605Q466 605 448.5 602Q431 599 414.5 589.5Q398 580 385 562Q372 544 365 513L342 425H480V305H311L288 216Q272 152 250 110.5Q228 69 198.5 44.5Q169 20 131.5 10Q94 0 47 0H36V125Q56 125 73.5 127.5Q91 130 105.5 139Q120 148 131.5 166.5Q143 185 151 217L174 305H38Z" glyph-name="florin.LP" horiz-adv-x="519" unicode="&#58661;" /><glyph d="M48 425H239L264 514Q281 576 306 617.5Q331 659 364 684Q397 709 439 719.5Q481 730 533 730H543V605Q509 605 485.5 601Q462 597 445.5 586.5Q429 576 419 558Q409 540 401 513L376 425H541V305H342L317 216Q300 156 278 115Q256 74 226 48.5Q196 23 157 11.5Q118 0 68 0H46V125Q107 125 136.5 145Q166 165 180 217L205 305H48Z" glyph-name="florin.LT" horiz-adv-x="588" unicode="&#62568;" /><glyph d="M348 168H35V292L341 730H480V292H587V168H480V0H348ZM348 292V527L182 292Z" glyph-name="four" horiz-adv-x="623" unicode="4" /><glyph d="M348 168H35V292L341 730H480V292H587V168H480V0H348ZM348 292V527L182 292Z" glyph-name="four.LP" horiz-adv-x="623" unicode="&#58681;" /><glyph d="M337 149H40V273L321 730H470V273H548V149H470V0H337ZM337 273V526L181 273Z" glyph-name="four.LT" horiz-adv-x="588" unicode="&#58692;" /><glyph d="M183 84H14V183L182 422H287V179H349V84H287V0H183ZM183 179V256L130 179Z" glyph-name="four.inf" horiz-adv-x="363" unicode="&#58741;" /><glyph d="M538 730H694L167 0H11Z" glyph-name="fraction" horiz-adv-x="704" unicode="&#8260;" /><glyph d="M36 730H449V600H172V499H449V385H172V324H449V209H172V0H36Z" glyph-name="franc" horiz-adv-x="486" unicode="&#8355;" /><glyph d="M499 78Q467 36 417 12Q367 -12 308 -12Q255 -12 203.5 8.5Q152 29 111 68Q70 107 45 163.5Q20 220 20 292Q20 365 44.5 421.5Q69 478 109.5 517Q150 556 202.5 576.5Q255 597 310 597Q368 597 417 573.5Q466 550 498 510V585H633V15Q633 -47 613.5 -101Q594 -155 556 -195.5Q518 -236 461.5 -259.5Q405 -283 331 -283Q274 -283 227.5 -270.5Q181 -258 144 -235.5Q107 -213 79 -182.5Q51 -152 31 -115L151 -42Q183 -101 223 -130Q263 -159 333 -159Q371 -159 402 -145Q433 -131 454.5 -108Q476 -85 487.5 -54Q499 -23 499 10ZM330 112Q368 112 400 126Q432 140 455 165Q478 190 491.5 223Q505 256 505 294Q505 331 491.5 364Q478 397 455 421.5Q432 446 400 460Q368 474 330 474Q293 474 260.5 460Q228 446 204 422Q180 398 166.5 365Q153 332 153 294Q153 256 166.5 222.5Q180 189 204 164.5Q228 140 260.5 126Q293 112 330 112Z" glyph-name="g" horiz-adv-x="673" unicode="g" /><glyph d="M260 -255Q194 -255 149.5 -244Q105 -233 77 -215Q49 -197 37 -173.5Q25 -150 25 -125Q25 -93 39 -71.5Q53 -50 76 -38Q47 -22 33.5 4.5Q20 31 20 65Q20 99 41 124Q62 149 97 163Q67 189 49.5 225.5Q32 262 32 307Q32 349 48 386.5Q64 424 91.5 451.5Q119 479 156 495Q193 511 235 511Q293 511 337 484.5Q381 458 405 413Q411 459 432 479.5Q453 500 497 500H506V352H494Q480 352 470 351.5Q460 351 453 347Q446 343 443 334Q440 325 440 307Q440 264 425.5 226.5Q411 189 385 161Q359 133 323 117Q287 101 245 101H167Q144 101 135 94.5Q126 88 126 79Q126 70 133 63Q140 56 163 56H333Q421 56 467.5 18Q514 -20 514 -86Q514 -160 449.5 -207.5Q385 -255 260 -255ZM235 222Q270 222 294.5 247Q319 272 319 307Q319 342 294.5 367.5Q270 393 235 393Q200 393 176 367.5Q152 342 152 307Q152 272 176 247Q200 222 235 222ZM201 -57Q166 -57 153.5 -69Q141 -81 141 -95Q141 -103 143.5 -110Q146 -117 155 -123Q164 -129 182.5 -132.5Q201 -136 233 -136H294Q325 -136 344.5 -131.5Q364 -127 375.5 -120Q387 -113 391 -105Q395 -97 395 -90Q395 -76 380.5 -66.5Q366 -57 326 -57Z" glyph-name="g.alt" horiz-adv-x="524" unicode="&#58566;" /><glyph d="M333 -8Q261 -8 203.5 16.5Q146 41 105.5 83Q65 125 43 180.5Q21 236 21 298Q21 363 44 418.5Q67 474 107.5 515.5Q148 557 204.5 580.5Q261 604 328 604Q422 604 491 562.5Q560 521 598 455L481 388Q458 430 419.5 453Q381 476 329 476Q293 476 261 462.5Q229 449 205.5 425Q182 401 168.5 368.5Q155 336 155 298Q155 259 168 226Q181 193 204.5 169.5Q228 146 260 132.5Q292 119 331 119Q387 119 425 146.5Q463 174 478 222H305V348H623V287Q623 227 602.5 173.5Q582 120 544 79.5Q506 39 452.5 15.5Q399 -8 333 -8Z" glyph-name="g.smcp" horiz-adv-x="646" unicode="&#57863;" /><glyph d="M499 78Q467 36 417 12Q367 -12 308 -12Q255 -12 203.5 8.5Q152 29 111 68Q70 107 45 163.5Q20 220 20 292Q20 365 44.5 421.5Q69 478 109.5 517Q150 556 202.5 576.5Q255 597 310 597Q368 597 417 573.5Q466 550 498 510V585H633V15Q633 -47 613.5 -101Q594 -155 556 -195.5Q518 -236 461.5 -259.5Q405 -283 331 -283Q274 -283 227.5 -270.5Q181 -258 144 -235.5Q107 -213 79 -182.5Q51 -152 31 -115L151 -42Q183 -101 223 -130Q263 -159 333 -159Q371 -159 402 -145Q433 -131 454.5 -108Q476 -85 487.5 -54Q499 -23 499 10ZM330 112Q368 112 400 126Q432 140 455 165Q478 190 491.5 223Q505 256 505 294Q505 331 491.5 364Q478 397 455 421.5Q432 446 400 460Q368 474 330 474Q293 474 260.5 460Q228 446 204 422Q180 398 166.5 365Q153 332 153 294Q153 256 166.5 222.5Q180 189 204 164.5Q228 140 260.5 126Q293 112 330 112ZM340 638Q299 638 268.5 651Q238 664 218 686.5Q198 709 188.5 740.5Q179 772 179 808H264Q264 760 283.5 737Q303 714 340 712Q376 714 396 737Q416 760 416 808H502Q502 772 491 740.5Q480 709 459 686.5Q438 664 408 651Q378 638 340 638Z" glyph-name="gbreve" horiz-adv-x="673" unicode="&#287;" /><glyph d="M260 -255Q194 -255 149.5 -244Q105 -233 77 -215Q49 -197 37 -173.5Q25 -150 25 -125Q25 -93 39 -71.5Q53 -50 76 -38Q47 -22 33.5 4.5Q20 31 20 65Q20 99 41 124Q62 149 97 163Q67 189 49.5 225.5Q32 262 32 307Q32 349 48 386.5Q64 424 91.5 451.5Q119 479 156 495Q193 511 235 511Q293 511 337 484.5Q381 458 405 413Q411 459 432 479.5Q453 500 497 500H506V352H494Q480 352 470 351.5Q460 351 453 347Q446 343 443 334Q440 325 440 307Q440 264 425.5 226.5Q411 189 385 161Q359 133 323 117Q287 101 245 101H167Q144 101 135 94.5Q126 88 126 79Q126 70 133 63Q140 56 163 56H333Q421 56 467.5 18Q514 -20 514 -86Q514 -160 449.5 -207.5Q385 -255 260 -255ZM240 545Q199 545 168.5 558Q138 571 118 593.5Q98 616 88.5 647.5Q79 679 79 715H164Q164 667 183.5 644Q203 621 240 619Q276 621 296 644Q316 667 316 715H402Q402 679 391 647.5Q380 616 359 593.5Q338 571 308 558Q278 545 240 545ZM235 222Q270 222 294.5 247Q319 272 319 307Q319 342 294.5 367.5Q270 393 235 393Q200 393 176 367.5Q152 342 152 307Q152 272 176 247Q200 222 235 222ZM196 -57Q164 -59 152.5 -70Q141 -81 141 -95Q141 -103 143.5 -110Q146 -117 155 -123Q164 -129 182.5 -132.5Q201 -136 233 -136H294Q325 -136 344.5 -131.5Q364 -127 375.5 -120Q387 -113 391 -105Q395 -97 395 -90Q395 -76 380.5 -66.5Q366 -57 326 -57Z" glyph-name="gbreve.alt" horiz-adv-x="524" unicode="&#59664;" /><glyph d="M333 -8Q261 -8 203.5 16.5Q146 41 105.5 83Q65 125 43 180.5Q21 236 21 298Q21 363 44 418.5Q67 474 107.5 515.5Q148 557 204.5 580.5Q261 604 328 604Q422 604 491 562.5Q560 521 598 455L481 388Q458 430 419.5 453Q381 476 329 476Q293 476 261 462.5Q229 449 205.5 425Q182 401 168.5 368.5Q155 336 155 298Q155 259 168 226Q181 193 204.5 169.5Q228 146 260 132.5Q292 119 331 119Q387 119 425 146.5Q463 174 478 222H305V348H623V287Q623 227 602.5 173.5Q582 120 544 79.5Q506 39 452.5 15.5Q399 -8 333 -8ZM332 638Q291 638 260.5 651Q230 664 210 686.5Q190 709 180.5 740.5Q171 772 171 808H256Q256 760 275.5 737Q295 714 332 712Q368 714 388 737Q408 760 408 808H494Q494 772 483 740.5Q472 709 451 686.5Q430 664 400 651Q370 638 332 638Z" glyph-name="gbreve.smcp" horiz-adv-x="646" unicode="&#57934;" /><glyph d="M499 78Q467 36 417 12Q367 -12 308 -12Q255 -12 203.5 8.5Q152 29 111 68Q70 107 45 163.5Q20 220 20 292Q20 365 44.5 421.5Q69 478 109.5 517Q150 556 202.5 576.5Q255 597 310 597Q368 597 417 573.5Q466 550 498 510V585H633V15Q633 -47 613.5 -101Q594 -155 556 -195.5Q518 -236 461.5 -259.5Q405 -283 331 -283Q274 -283 227.5 -270.5Q181 -258 144 -235.5Q107 -213 79 -182.5Q51 -152 31 -115L151 -42Q183 -101 223 -130Q263 -159 333 -159Q371 -159 402 -145Q433 -131 454.5 -108Q476 -85 487.5 -54Q499 -23 499 10ZM330 112Q368 112 400 126Q432 140 455 165Q478 190 491.5 223Q505 256 505 294Q505 331 491.5 364Q478 397 455 421.5Q432 446 400 460Q368 474 330 474Q293 474 260.5 460Q228 446 204 422Q180 398 166.5 365Q153 332 153 294Q153 256 166.5 222.5Q180 189 204 164.5Q228 140 260.5 126Q293 112 330 112ZM302 815H386L505 645H403L344 734L285 645H183Z" glyph-name="gcircumflex" horiz-adv-x="673" unicode="&#285;" /><glyph d="M260 -255Q194 -255 149.5 -244Q105 -233 77 -215Q49 -197 37 -173.5Q25 -150 25 -125Q25 -93 39 -71.5Q53 -50 76 -38Q47 -22 33.5 4.5Q20 31 20 65Q20 99 41 124Q62 149 97 163Q67 189 49.5 225.5Q32 262 32 307Q32 349 48 386.5Q64 424 91.5 451.5Q119 479 156 495Q193 511 235 511Q293 511 337 484.5Q381 458 405 413Q411 459 432 479.5Q453 500 497 500H506V352H494Q480 352 470 351.5Q460 351 453 347Q446 343 443 334Q440 325 440 307Q440 264 425.5 226.5Q411 189 385 161Q359 133 323 117Q287 101 245 101H167Q144 101 135 94.5Q126 88 126 79Q126 70 133 63Q140 56 163 56H333Q421 56 467.5 18Q514 -20 514 -86Q514 -160 449.5 -207.5Q385 -255 260 -255ZM194 720H278L397 550H295L236 639L177 550H75ZM235 222Q270 222 294.5 247Q319 272 319 307Q319 342 294.5 367.5Q270 393 235 393Q200 393 176 367.5Q152 342 152 307Q152 272 176 247Q200 222 235 222ZM201 -57Q166 -57 153.5 -69Q141 -81 141 -95Q141 -103 143.5 -110Q146 -117 155 -123Q164 -129 182.5 -132.5Q201 -136 233 -136H294Q325 -136 344.5 -131.5Q364 -127 375.5 -120Q387 -113 391 -105Q395 -97 395 -90Q395 -76 380.5 -66.5Q366 -57 326 -57Z" glyph-name="gcircumflex.alt" horiz-adv-x="524" unicode="&#59662;" /><glyph d="M333 -8Q261 -8 203.5 16.5Q146 41 105.5 83Q65 125 43 180.5Q21 236 21 298Q21 363 44 418.5Q67 474 107.5 515.5Q148 557 204.5 580.5Q261 604 328 604Q422 604 491 562.5Q560 521 598 455L481 388Q458 430 419.5 453Q381 476 329 476Q293 476 261 462.5Q229 449 205.5 425Q182 401 168.5 368.5Q155 336 155 298Q155 259 168 226Q181 193 204.5 169.5Q228 146 260 132.5Q292 119 331 119Q387 119 425 146.5Q463 174 478 222H305V348H623V287Q623 227 602.5 173.5Q582 120 544 79.5Q506 39 452.5 15.5Q399 -8 333 -8ZM290 816H374L493 646H391L332 735L273 646H171Z" glyph-name="gcircumflex.smcp" horiz-adv-x="646" unicode="&#57931;" /><glyph d="M499 78Q467 36 417 12Q367 -12 308 -12Q255 -12 203.5 8.5Q152 29 111 68Q70 107 45 163.5Q20 220 20 292Q20 365 44.5 421.5Q69 478 109.5 517Q150 556 202.5 576.5Q255 597 310 597Q368 597 417 573.5Q466 550 498 510V585H633V15Q633 -47 613.5 -101Q594 -155 556 -195.5Q518 -236 461.5 -259.5Q405 -283 331 -283Q274 -283 227.5 -270.5Q181 -258 144 -235.5Q107 -213 79 -182.5Q51 -152 31 -115L151 -42Q183 -101 223 -130Q263 -159 333 -159Q371 -159 402 -145Q433 -131 454.5 -108Q476 -85 487.5 -54Q499 -23 499 10ZM330 112Q368 112 400 126Q432 140 455 165Q478 190 491.5 223Q505 256 505 294Q505 331 491.5 364Q478 397 455 421.5Q432 446 400 460Q368 474 330 474Q293 474 260.5 460Q228 446 204 422Q180 398 166.5 365Q153 332 153 294Q153 256 166.5 222.5Q180 189 204 164.5Q228 140 260.5 126Q293 112 330 112ZM279 645 313 849H432L362 645Z" glyph-name="gcommaaccent" horiz-adv-x="673" unicode="&#291;" /><glyph d="M260 -255Q194 -255 149.5 -244Q105 -233 77 -215Q49 -197 37 -173.5Q25 -150 25 -125Q25 -93 39 -71.5Q53 -50 76 -38Q47 -22 33.5 4.5Q20 31 20 65Q20 99 41 124Q62 149 97 163Q67 189 49.5 225.5Q32 262 32 307Q32 349 48 386.5Q64 424 91.5 451.5Q119 479 156 495Q193 511 235 511Q293 511 337 484.5Q381 458 405 413Q411 459 432 479.5Q453 500 497 500H506V352H494Q480 352 470 351.5Q460 351 453 347Q446 343 443 334Q440 325 440 307Q440 264 425.5 226.5Q411 189 385 161Q359 133 323 117Q287 101 245 101H167Q144 101 135 94.5Q126 88 126 79Q126 70 133 63Q140 56 163 56H333Q421 56 467.5 18Q514 -20 514 -86Q514 -160 449.5 -207.5Q385 -255 260 -255ZM235 222Q270 222 294.5 247Q319 272 319 307Q319 342 294.5 367.5Q270 393 235 393Q200 393 176 367.5Q152 342 152 307Q152 272 176 247Q200 222 235 222ZM202 551 236 755H355L285 551ZM196 -57Q164 -59 152.5 -70Q141 -81 141 -95Q141 -103 143.5 -110Q146 -117 155 -123Q164 -129 182.5 -132.5Q201 -136 233 -136H294Q325 -136 344.5 -131.5Q364 -127 375.5 -120Q387 -113 391 -105Q395 -97 395 -90Q395 -76 380.5 -66.5Q366 -57 326 -57Z" glyph-name="gcommaaccent.alt" horiz-adv-x="524" unicode="&#59665;" /><glyph d="M333 -8Q261 -8 203.5 16.5Q146 41 105.5 83Q65 125 43 180.5Q21 236 21 298Q21 363 44 418.5Q67 474 107.5 515.5Q148 557 204.5 580.5Q261 604 328 604Q422 604 491 562.5Q560 521 598 455L481 388Q458 430 419.5 453Q381 476 329 476Q293 476 261 462.5Q229 449 205.5 425Q182 401 168.5 368.5Q155 336 155 298Q155 259 168 226Q181 193 204.5 169.5Q228 146 260 132.5Q292 119 331 119Q387 119 425 146.5Q463 174 478 222H305V348H623V287Q623 227 602.5 173.5Q582 120 544 79.5Q506 39 452.5 15.5Q399 -8 333 -8ZM238 -250 272 -46H391L321 -250Z" glyph-name="gcommaaccent.smcp" horiz-adv-x="646" unicode="&#57920;" /><glyph d="M499 78Q467 36 417 12Q367 -12 308 -12Q255 -12 203.5 8.5Q152 29 111 68Q70 107 45 163.5Q20 220 20 292Q20 365 44.5 421.5Q69 478 109.5 517Q150 556 202.5 576.5Q255 597 310 597Q368 597 417 573.5Q466 550 498 510V585H633V15Q633 -47 613.5 -101Q594 -155 556 -195.5Q518 -236 461.5 -259.5Q405 -283 331 -283Q274 -283 227.5 -270.5Q181 -258 144 -235.5Q107 -213 79 -182.5Q51 -152 31 -115L151 -42Q183 -101 223 -130Q263 -159 333 -159Q371 -159 402 -145Q433 -131 454.5 -108Q476 -85 487.5 -54Q499 -23 499 10ZM330 112Q368 112 400 126Q432 140 455 165Q478 190 491.5 223Q505 256 505 294Q505 331 491.5 364Q478 397 455 421.5Q432 446 400 460Q368 474 330 474Q293 474 260.5 460Q228 446 204 422Q180 398 166.5 365Q153 332 153 294Q153 256 166.5 222.5Q180 189 204 164.5Q228 140 260.5 126Q293 112 330 112ZM249 713Q249 748 270.5 770Q292 792 328 792Q365 792 386 770Q407 748 407 713Q407 678 386 656.5Q365 635 328 635Q290 635 269.5 656.5Q249 678 249 713Z" glyph-name="gdotaccent" horiz-adv-x="673" unicode="&#289;" /><glyph d="M260 -255Q194 -255 149.5 -244Q105 -233 77 -215Q49 -197 37 -173.5Q25 -150 25 -125Q25 -93 39 -71.5Q53 -50 76 -38Q47 -22 33.5 4.5Q20 31 20 65Q20 99 41 124Q62 149 97 163Q67 189 49.5 225.5Q32 262 32 307Q32 349 48 386.5Q64 424 91.5 451.5Q119 479 156 495Q193 511 235 511Q293 511 337 484.5Q381 458 405 413Q411 459 432 479.5Q453 500 497 500H506V352H494Q480 352 470 351.5Q460 351 453 347Q446 343 443 334Q440 325 440 307Q440 264 425.5 226.5Q411 189 385 161Q359 133 323 117Q287 101 245 101H167Q144 101 135 94.5Q126 88 126 79Q126 70 133 63Q140 56 163 56H333Q421 56 467.5 18Q514 -20 514 -86Q514 -160 449.5 -207.5Q385 -255 260 -255ZM235 222Q270 222 294.5 247Q319 272 319 307Q319 342 294.5 367.5Q270 393 235 393Q200 393 176 367.5Q152 342 152 307Q152 272 176 247Q200 222 235 222ZM164 619Q164 654 185.5 676Q207 698 243 698Q280 698 301 676Q322 654 322 619Q322 584 301 562.5Q280 541 243 541Q205 541 184.5 562.5Q164 584 164 619ZM207 -57Q169 -56 155 -68.5Q141 -81 141 -95Q141 -103 143.5 -110Q146 -117 155 -123Q164 -129 182.5 -132.5Q201 -136 233 -136H294Q325 -136 344.5 -131.5Q364 -127 375.5 -120Q387 -113 391 -105Q395 -97 395 -90Q395 -76 380.5 -66.5Q366 -57 326 -57Z" glyph-name="gdotaccent.alt" horiz-adv-x="524" unicode="&#59663;" /><glyph d="M333 -8Q261 -8 203.5 16.5Q146 41 105.5 83Q65 125 43 180.5Q21 236 21 298Q21 363 44 418.5Q67 474 107.5 515.5Q148 557 204.5 580.5Q261 604 328 604Q422 604 491 562.5Q560 521 598 455L481 388Q458 430 419.5 453Q381 476 329 476Q293 476 261 462.5Q229 449 205.5 425Q182 401 168.5 368.5Q155 336 155 298Q155 259 168 226Q181 193 204.5 169.5Q228 146 260 132.5Q292 119 331 119Q387 119 425 146.5Q463 174 478 222H305V348H623V287Q623 227 602.5 173.5Q582 120 544 79.5Q506 39 452.5 15.5Q399 -8 333 -8ZM252 715Q252 750 273.5 772Q295 794 331 794Q368 794 389 772Q410 750 410 715Q410 680 389 658.5Q368 637 331 637Q293 637 272.5 658.5Q252 680 252 715Z" glyph-name="gdotaccent.smcp" horiz-adv-x="646" unicode="&#57935;" /><glyph d="M-80 -142Q-42 -142 -18.5 -137Q5 -132 17.5 -118.5Q30 -105 34.5 -82.5Q39 -60 39 -24V601Q37 657 53 703.5Q69 750 101 783.5Q133 817 181 835.5Q229 854 291 854Q346 854 392 836.5Q438 819 471 788Q504 757 522 713.5Q540 670 540 619Q540 558 509.5 512Q479 466 424 443Q455 433 482 414.5Q509 396 528.5 370.5Q548 345 559 313Q570 281 570 245Q570 189 551 142Q532 95 497.5 61Q463 27 414.5 8Q366 -11 306 -11Q286 -11 265 -9Q244 -7 227 0V122Q231 119 241 117Q251 115 263 113.5Q275 112 286.5 111.5Q298 111 304 111Q331 111 354.5 121Q378 131 395.5 149Q413 167 422.5 191.5Q432 216 432 244Q432 271 421 294.5Q410 318 390 336Q370 354 340.5 364.5Q311 375 275 375H249V498H275Q335 498 371.5 533Q408 568 408 620Q408 645 399.5 666.5Q391 688 376 704.5Q361 721 339 730.5Q317 740 290 740Q234 740 200.5 709Q167 678 167 615V-24Q167 -92 156 -138.5Q145 -185 119 -214Q93 -243 49.5 -256Q6 -269 -59 -269H-80Z" glyph-name="germandbls" horiz-adv-x="589" unicode="&#223;" /><glyph d="M105 720H232L346 550H255Z" glyph-name="grave" horiz-adv-x="472" unicode="`" /><glyph d="M36 290 259 363 36 436V554L406 421V306L36 172Z" glyph-name="greater" horiz-adv-x="442" unicode="&gt;" /><glyph d="M35 379 258 452 35 524V643L405 509V395L35 261ZM35 229H405V114H35Z" glyph-name="greaterequal" horiz-adv-x="442" unicode="&#8805;" /><glyph d="M248 218V293L431 406V315L331 255L431 196V104ZM46 218V293L229 406V315L129 255L229 196V104Z" glyph-name="guillemotleft" horiz-adv-x="477" unicode="&#171;" /><glyph d="M248 328V403L431 516V425L331 366L431 306V215ZM46 328V403L229 516V425L129 366L229 306V215Z" glyph-name="guillemotleft.cap" horiz-adv-x="477" unicode="&#58451;" /><glyph d="M248 196 348 255 248 315V406L431 293V218L248 104ZM46 196 146 255 46 315V406L229 293V218L46 104Z" glyph-name="guillemotright" horiz-adv-x="477" unicode="&#187;" /><glyph d="M248 306 348 366 248 425V516L431 403V328L248 215ZM46 306 146 366 46 425V516L229 403V328L46 215Z" glyph-name="guillemotright.cap" horiz-adv-x="477" unicode="&#58452;" /><glyph d="M53 214V297L222 416V315L133 255L222 196V95Z" glyph-name="guilsinglleft" horiz-adv-x="275" unicode="&#8249;" /><glyph d="M53 324V407L222 526V425L133 366L222 306V205Z" glyph-name="guilsinglleft.cap" horiz-adv-x="275" unicode="&#58449;" /><glyph d="M53 197 142 256 53 316V417L222 298V215L53 96Z" glyph-name="guilsinglright" horiz-adv-x="275" unicode="&#8250;" /><glyph d="M53 307 142 367 53 426V527L222 408V325L53 206Z" glyph-name="guilsinglright.cap" horiz-adv-x="275" unicode="&#58450;" /><glyph d="M39 740H174V515Q204 553 248.5 575Q293 597 349 597Q458 597 519.5 531Q581 465 581 347V0H443V332Q443 401 410 440.5Q377 480 311 480Q283 480 258 469.5Q233 459 214.5 439Q196 419 185.5 389Q175 359 175 321V0H39Z" glyph-name="h" horiz-adv-x="619" unicode="h" /><glyph d="M357 234H171V0H37V596H171V366H357V596H491V0H357Z" glyph-name="h.smcp" horiz-adv-x="528" unicode="&#57864;" /><glyph d="M-11 678H47V740H182V678H245V605H182V515Q212 553 256.5 575Q301 597 357 597Q466 597 527.5 531Q589 465 589 347V0H451V332Q451 401 418 440.5Q385 480 319 480Q291 480 266 469.5Q241 459 222.5 439Q204 419 193.5 389Q183 359 183 321V0H47V605H-11Z" glyph-name="hbar" horiz-adv-x="627" unicode="&#295;" /><glyph d="M368 215H182V0H48V404H11V536H48V596H182V536H368V596H502V536H538V404H502V0H368ZM182 347H368V404H182Z" glyph-name="hbar.smcp" horiz-adv-x="550" unicode="&#57943;" /><glyph d="M39 740H174V515Q204 553 248.5 575Q293 597 349 597Q458 597 519.5 531Q581 465 581 347V0H443V332Q443 401 410 440.5Q377 480 311 480Q283 480 258 469.5Q233 459 214.5 439Q196 419 185.5 389Q175 359 175 321V0H39ZM67 946H151L270 776H168L109 865L50 776H-52Z" glyph-name="hcircumflex" horiz-adv-x="619" unicode="&#293;" /><glyph d="M357 234H171V0H37V596H171V366H357V596H491V0H357ZM223 816H307L426 646H324L265 735L206 646H104Z" glyph-name="hcircumflex.smcp" horiz-adv-x="528" unicode="&#57939;" /><glyph d="M89 550Q89 589 103 623.5Q117 658 142 684Q167 710 200 725Q233 740 272 740Q310 740 342.5 727.5Q375 715 399 693.5Q423 672 438 642.5Q453 613 457 579Q462 613 476.5 642.5Q491 672 515 693.5Q539 715 571 727.5Q603 740 642 740Q681 740 715 725Q749 710 775 684Q801 658 816 623.5Q831 589 831 550Q831 507 818 463.5Q805 420 777 371.5Q749 323 705 266Q661 209 599 140L457 -17L316 140Q254 209 210.5 266Q167 323 140 371.5Q113 420 101 463.5Q89 507 89 550Z" glyph-name="heart" horiz-adv-x="920" unicode="&#9829;" /><glyph d="M100 0V427L437 750L774 427V0Z" glyph-name="house" horiz-adv-x="874" unicode="&#8962;" /><glyph d="M150 720H270L120 550H36ZM316 720H436L286 550H202Z" glyph-name="hungarumlaut" horiz-adv-x="472" unicode="&#733;" /><glyph d="M36 312H406V197H36Z" glyph-name="hyphen" horiz-adv-x="442" unicode="-" /><glyph d="M36 416H406V302H36Z" glyph-name="hyphen.cap" horiz-adv-x="442" unicode="&#58498;" /><glyph d="M39 585H175V0H39ZM22 728Q22 766 45 789.5Q68 813 107 813Q147 813 169.5 789.5Q192 766 192 728Q192 690 169.5 667Q147 644 107 644Q66 644 44 667Q22 690 22 728Z" glyph-name="i" horiz-adv-x="214" unicode="i" /><glyph d="M42 596H177V0H42Z" glyph-name="i.smcp" horiz-adv-x="219" unicode="&#57865;" /><glyph d="M170 805H296L146 635H55ZM39 585H175V0H39Z" glyph-name="iacute" horiz-adv-x="214" unicode="&#237;" /><glyph d="M176 816H302L152 646H61ZM42 596H177V0H42Z" glyph-name="iacute.smcp" horiz-adv-x="219" unicode="&#57944;" /><glyph d="M39 585H175V0H39ZM111 629Q70 629 39.5 642Q9 655 -11 677.5Q-31 700 -40.5 731.5Q-50 763 -50 799H35Q35 751 54.5 728Q74 705 111 703Q147 705 167 728Q187 751 187 799H273Q273 763 262 731.5Q251 700 230 677.5Q209 655 179 642Q149 629 111 629Z" glyph-name="ibreve" horiz-adv-x="214" unicode="&#301;" /><glyph d="M42 596H177V0H42ZM109 638Q68 638 37.5 651Q7 664 -13 686.5Q-33 709 -42.5 740.5Q-52 772 -52 808H33Q33 760 52.5 737Q72 714 109 712Q145 714 165 737Q185 760 185 808H271Q271 772 260 740.5Q249 709 228 686.5Q207 664 177 651Q147 638 109 638Z" glyph-name="ibreve.smcp" horiz-adv-x="219" unicode="&#57951;" /><glyph d="M39 585H175V0H39ZM68 805H152L271 635H169L110 724L51 635H-51Z" glyph-name="icircumflex" horiz-adv-x="214" unicode="&#238;" /><glyph d="M42 596H177V0H42ZM77 816H161L280 646H178L119 735L60 646H-42Z" glyph-name="icircumflex.smcp" horiz-adv-x="219" unicode="&#57946;" /><glyph d="M145 791H280V630H145ZM-68 791H68V630H-68ZM39 585H175V0H39Z" glyph-name="idieresis" horiz-adv-x="214" unicode="&#239;" /><glyph d="M168 784H302V647H168ZM-63 784H71V647H-63ZM42 596H177V0H42Z" glyph-name="idieresis.smcp" horiz-adv-x="219" unicode="&#57947;" /><glyph d="M39 585H175V0H39ZM22 728Q22 766 45 789.5Q68 813 107 813Q147 813 169.5 789.5Q192 766 192 728Q192 690 169.5 667Q147 644 107 644Q66 644 44 667Q22 690 22 728Z" glyph-name="idotaccent" horiz-adv-x="214" unicode="&#59269;" /><glyph d="M42 596H177V0H42ZM30 715Q30 750 51.5 772Q73 794 109 794Q146 794 167 772Q188 750 188 715Q188 680 167 658.5Q146 637 109 637Q71 637 50.5 658.5Q30 680 30 715Z" glyph-name="idotaccent.smcp" horiz-adv-x="219" unicode="&#57954;" /><glyph d="M39 585H175V0H39ZM-91 805H36L150 635H59Z" glyph-name="igrave" horiz-adv-x="214" unicode="&#236;" /><glyph d="M-83 816H44L158 646H67ZM42 596H177V0H42Z" glyph-name="igrave.smcp" horiz-adv-x="219" unicode="&#57945;" /><glyph d="M39 -112H138Q177 -112 201 -108Q225 -104 238 -91.5Q251 -79 255 -55.5Q259 -32 259 6V585H395V5Q395 -64 383 -111Q371 -158 343.5 -186.5Q316 -215 270.5 -227Q225 -239 159 -239H39ZM39 585H175V0H39ZM39 822H175V659H39ZM259 822H395V659H259Z" glyph-name="ij" horiz-adv-x="434" unicode="&#307;" /><glyph d="M216 123H222Q258 124 269.5 136.5Q281 149 281 191V596H416V195Q416 137 406 99Q396 61 373.5 39Q351 17 315 8.5Q279 0 226 0H216ZM36 596H171V0H36Z" glyph-name="ij.smcp" horiz-adv-x="452" unicode="&#58151;" /><glyph d="M39 585H175V0H39ZM-23 721H241V635H-23Z" glyph-name="imacron" horiz-adv-x="214" unicode="&#299;" /><glyph d="M-24 732H240V646H-24ZM42 596H177V0H42Z" glyph-name="imacron.smcp" horiz-adv-x="219" unicode="&#57950;" /><glyph d="M249 206Q212 206 179.5 220Q147 234 123 258Q99 282 85 314.5Q71 347 71 384Q71 421 85 453.5Q99 486 123 510.5Q147 535 179.5 549Q212 563 249 563Q308 563 356.5 532.5Q405 502 447 462Q489 502 537 532.5Q585 563 643 563Q680 563 712.5 549Q745 535 769.5 510.5Q794 486 808 453.5Q822 421 822 384Q822 347 808 314.5Q794 282 769.5 258Q745 234 712.5 220Q680 206 643 206Q585 206 537.5 236Q490 266 447 306Q405 266 356.5 236Q308 206 249 206ZM249 319Q279 319 308.5 337.5Q338 356 367 384Q338 412 308.5 430.5Q279 449 249 449Q223 449 203.5 429.5Q184 410 184 384Q184 358 203.5 338.5Q223 319 249 319ZM643 319Q669 319 688.5 338.5Q708 358 708 384Q708 410 688.5 429.5Q669 449 643 449Q614 449 585.5 430.5Q557 412 527 384Q557 356 585.5 337.5Q614 319 643 319Z" glyph-name="infinity" horiz-adv-x="893" unicode="&#8734;" /><glyph d="M15 -90Q47 -90 66 -87Q85 -84 94.5 -74Q104 -64 107 -46.5Q110 -29 110 0V514Q110 575 121 616.5Q132 658 157.5 683Q183 708 225 719Q267 730 329 730H340V605Q308 605 289 602Q270 599 260.5 589Q251 579 248 561Q245 543 245 513V1Q245 -60 234 -101Q223 -142 197.5 -167.5Q172 -193 130 -204Q88 -215 26 -215H15Z" glyph-name="integral" horiz-adv-x="364" unicode="&#8747;" /><glyph d="M197 187Q195 232 192.5 285.5Q190 339 188.5 395Q187 451 186 507Q185 563 185 613V615Q161 603 146.5 582Q132 561 126 536L0 579Q19 651 80.5 695.5Q142 740 238 740Q293 740 338.5 725Q384 710 416 682.5Q448 655 466 616.5Q484 578 484 531Q484 484 470 454.5Q456 425 434.5 404.5Q413 384 388 367.5Q363 351 341.5 330Q320 309 306 278.5Q292 248 292 199V187ZM163 69Q163 106 185 128.5Q207 151 245 151Q283 151 304.5 128.5Q326 106 326 69Q326 33 304 10.5Q282 -12 244 -12Q206 -12 184.5 10.5Q163 33 163 69ZM348 533Q348 559 336 579.5Q324 600 299 613Q299 521 293 423Q315 447 331.5 470Q348 493 348 533Z" glyph-name="interrobang" horiz-adv-x="517" unicode="&#8253;" /><glyph d="M279 -240Q224 -240 178.5 -225Q133 -210 100.5 -182.5Q68 -155 50 -116.5Q32 -78 32 -31Q32 17 46.5 46Q61 75 82 95.5Q103 116 128.5 132.5Q154 149 175 170Q196 191 210.5 221.5Q225 252 225 301V313H320Q322 268 324 214.5Q326 161 328 105Q330 49 331 -7Q332 -63 332 -113V-115Q355 -103 370 -82Q385 -61 391 -36L517 -79Q498 -151 436.5 -195.5Q375 -240 279 -240ZM194 431Q194 468 216 490.5Q238 513 276 513Q314 513 335.5 490.5Q357 468 357 431Q357 395 335 372.5Q313 350 275 350Q237 350 215.5 372.5Q194 395 194 431ZM168 -33Q168 -59 180.5 -79.5Q193 -100 218 -113Q218 -68 219 -20Q220 28 223 77Q201 53 184.5 30.5Q168 8 168 -33Z" glyph-name="interrobangdown" horiz-adv-x="517" unicode="&#59701;" /><glyph d="M279 -10Q224 -10 178.5 5Q133 20 100.5 47.5Q68 75 50 113.5Q32 152 32 199Q32 247 46.5 276Q61 305 82 325.5Q103 346 128.5 362.5Q154 379 175 400Q196 421 210.5 451.5Q225 482 225 531V543H320Q322 498 324 444.5Q326 391 328 335Q330 279 331 223Q332 167 332 117V116Q355 127 370 148Q385 169 391 194L517 151Q498 79 436.5 34.5Q375 -10 279 -10ZM193 662Q193 699 215 721.5Q237 744 275 744Q313 744 334.5 721.5Q356 699 356 662Q356 626 334 603.5Q312 581 274 581Q236 581 214.5 603.5Q193 626 193 662ZM168 197Q168 171 180.5 150Q193 129 218 117Q218 162 219 210Q220 258 223 307Q201 283 184.5 260.5Q168 238 168 197Z" glyph-name="interrobangdown.cap" horiz-adv-x="517" unicode="&#59803;" /><glyph d="M74 550Q74 586 83.5 617.5Q93 649 113 671.5Q133 694 163.5 707Q194 720 235 720Q273 720 303 707Q333 694 354 671.5Q375 649 386 617.5Q397 586 397 550H311Q311 598 291 621.5Q271 645 235 647Q159 644 159 550Z" glyph-name="invertedbreve" horiz-adv-x="472" unicode="&#58385;" /><glyph d="M48 -229Q-10 -229 -46.5 -198.5Q-83 -168 -84 -121Q-85 -69 -52 -32Q-19 5 38 42L39 41V585H175V0H120Q63 -35 39 -64Q15 -93 15 -111Q15 -128 25.5 -136Q36 -144 53 -144Q68 -144 80.5 -135Q93 -126 103 -114L182 -169Q156 -196 124 -212.5Q92 -229 48 -229ZM22 728Q22 766 45 789.5Q68 813 107 813Q147 813 169.5 789.5Q192 766 192 728Q192 690 169.5 667Q147 644 107 644Q66 644 44 667Q22 690 22 728Z" glyph-name="iogonek" horiz-adv-x="214" unicode="&#303;" /><glyph d="M105 -229Q47 -229 10.5 -198.5Q-26 -168 -27 -121Q-27 -83 -9 -53Q9 -23 42 4V596H177V0Q120 -35 96 -64Q72 -93 72 -111Q72 -128 82.5 -136Q93 -144 110 -144Q125 -144 137.5 -135Q150 -126 160 -114L239 -169Q213 -196 181 -212.5Q149 -229 105 -229Z" glyph-name="iogonek.smcp" horiz-adv-x="219" unicode="&#63054;" /><glyph d="M39 585H175V0H39ZM-63 635Q-63 696 -35.5 733Q-8 770 41 770Q66 770 84 762.5Q102 755 118 746Q132 736 144.5 728.5Q157 721 170 721Q198 721 198 766H276Q276 704 250 667.5Q224 631 171 631Q142 631 121.5 641.5Q101 652 84 662Q73 669 62.5 674Q52 679 41 679Q15 679 15 635Z" glyph-name="itilde" horiz-adv-x="214" unicode="&#297;" /><glyph d="M42 596H177V0H42ZM-52 646Q-52 707 -24.5 744Q3 781 52 781Q77 781 95 773.5Q113 766 129 757Q143 747 155.5 739.5Q168 732 181 732Q209 732 209 777H287Q287 715 261 678.5Q235 642 182 642Q153 642 132.5 652.5Q112 663 95 673Q84 680 73.5 685Q63 690 52 690Q26 690 26 646Z" glyph-name="itilde.smcp" horiz-adv-x="219" unicode="&#57948;" /><glyph d="M-82 -142Q-43 -142 -19 -138Q5 -134 18 -121.5Q31 -109 35 -86Q39 -63 39 -24V585H175V-25Q175 -94 163 -141Q151 -188 123 -216.5Q95 -245 49.5 -257Q4 -269 -63 -269H-82ZM22 728Q22 766 45 789.5Q68 813 107 813Q147 813 169.5 789.5Q192 766 192 728Q192 690 169.5 667Q147 644 107 644Q66 644 44 667Q22 690 22 728Z" glyph-name="j" horiz-adv-x="213" unicode="j" /><glyph d="M210 -8Q135 -8 85 27.5Q35 63 18 122L146 173Q153 147 168 131Q183 115 209 115Q235 115 248.5 133Q262 151 262 178V596H397V187Q397 96 350.5 44Q304 -8 210 -8Z" glyph-name="j.smcp" horiz-adv-x="433" unicode="&#57866;" /><glyph d="M-82 -142Q-43 -142 -19 -138Q5 -134 18 -121.5Q31 -109 35 -86Q39 -63 39 -24V585H176V-25Q176 -95 164 -141.5Q152 -188 124 -216.5Q96 -245 50.5 -257Q5 -269 -63 -269H-82ZM66 805H150L269 635H167L108 724L49 635H-53Z" glyph-name="jcircumflex" horiz-adv-x="214" unicode="&#309;" /><glyph d="M210 -8Q135 -8 85 27.5Q35 63 18 122L146 173Q153 147 168 131Q183 115 209 115Q235 115 248.5 133Q262 151 262 178V596H397V187Q397 96 350.5 44Q304 -8 210 -8ZM286 816H370L489 646H387L328 735L269 646H167Z" glyph-name="jcircumflex.smcp" horiz-adv-x="433" unicode="&#63027;" /><glyph d="M39 740H174V303L423 585H585L359 332L593 0H442L267 252L174 149V0H39Z" glyph-name="k" horiz-adv-x="601" unicode="k" /><glyph d="M224 263 171 193V0H37V596H171V371L343 596H502L321 361L515 0H365Z" glyph-name="k.smcp" horiz-adv-x="524" unicode="&#57867;" /><glyph d="M39 740H174V303L423 585H585L359 332L593 0H442L267 252L174 149V0H39ZM202 -240 236 -36H355L285 -240Z" glyph-name="kcommaaccent" horiz-adv-x="601" unicode="&#311;" /><glyph d="M224 263 171 193V0H37V596H171V371L343 596H502L321 361L515 0H365ZM172 -244 206 -40H325L255 -244Z" glyph-name="kcommaaccent.smcp" horiz-adv-x="524" unicode="&#57960;" /><glyph d="M267 252 174 149V0H39V585H174V303L423 585H585L360 332L592 0H442Z" glyph-name="kgreenlandic" horiz-adv-x="601" unicode="&#312;" /><glyph d="M39 740H175V0H39Z" glyph-name="l" horiz-adv-x="214" unicode="l" /><glyph d="M37 596H171V128H372V0H37Z" glyph-name="l.smcp" horiz-adv-x="400" unicode="&#57868;" /><glyph d="M177 965H303L153 795H62ZM39 740H175V0H39Z" glyph-name="lacute" horiz-adv-x="214" unicode="&#314;" /><glyph d="M37 596H171V128H372V0H37ZM170 816H296L146 646H55Z" glyph-name="lacute.smcp" horiz-adv-x="400" unicode="&#57963;" /><glyph d="M37 740H173V0H37ZM220 740H329L278 569H195Z" glyph-name="lcaron" horiz-adv-x="282" unicode="&#318;" /><glyph d="M37 596H171V128H372V0H37ZM271 596H380L329 425H246Z" glyph-name="lcaron.smcp" horiz-adv-x="400" unicode="&#57964;" /><glyph d="M13 -250 47 -46H166L96 -250ZM39 740H175V0H39Z" glyph-name="lcommaaccent" horiz-adv-x="214" unicode="&#316;" /><glyph d="M37 596H171V128H372V0H37ZM112 -254 146 -50H265L195 -254Z" glyph-name="lcommaaccent.smcp" horiz-adv-x="400" unicode="&#57965;" /><glyph d="M39 740H175V0H39ZM217 314Q217 349 238.5 371Q260 393 296 393Q333 393 354 371Q375 349 375 314Q375 279 354 257.5Q333 236 296 236Q258 236 237.5 257.5Q217 279 217 314Z" glyph-name="ldot" horiz-adv-x="381" unicode="&#320;" /><glyph d="M37 596H171V128H371V0H37ZM224 315Q224 350 245.5 372Q267 394 303 394Q340 394 361 372Q382 350 382 315Q382 280 361 258.5Q340 237 303 237Q265 237 244.5 258.5Q224 280 224 315Z" glyph-name="ldot.smcp" horiz-adv-x="399" unicode="&#57969;" /><glyph d="M36 306V421L406 554V436L182 363L406 290V172Z" glyph-name="less" horiz-adv-x="442" unicode="&lt;" /><glyph d="M35 395V509L405 643V524L182 452L405 379V261ZM35 229H405V114H35Z" glyph-name="lessequal" horiz-adv-x="442" unicode="&#8804;" /><glyph d="M85 477H153Q149 497 149 524Q149 571 166 611Q183 651 213.5 679.5Q244 708 286.5 724Q329 740 380 740Q471 740 530 701.5Q589 663 610 596L482 549Q462 622 381 622Q333 622 305 593Q277 564 277 526Q277 502 282 477H492V379H319L333 346H492V248H366Q369 233 371 216.5Q373 200 373 183Q373 169 371 155Q369 141 366 128Q390 115 412.5 106.5Q435 98 458 98Q498 98 514 117Q530 136 530 180V228H669V163Q669 124 659.5 92.5Q650 61 629 38Q608 15 574.5 2.5Q541 -10 492 -10Q439 -10 397 7Q355 24 319 46Q293 19 259.5 4Q226 -11 189 -11Q123 -11 87 14.5Q51 40 51 93Q51 141 85.5 171.5Q120 202 173 202Q203 202 231 193.5Q259 185 285 172Q286 175 286 182Q286 215 272 248H85V346H213Q203 361 192 379H85ZM189 69Q222 69 247 92Q229 103 212 109.5Q195 116 179 116Q165 116 158.5 109.5Q152 103 152 94Q152 83 161.5 76Q171 69 189 69Z" glyph-name="lira" horiz-adv-x="705" unicode="&#8356;" /><glyph d="M432 387H28V518H568V156H432Z" glyph-name="logicalnot" horiz-adv-x="603" unicode="&#172;" /><glyph d="M36 -100H411V-215H36Z" glyph-name="lowline" horiz-adv-x="447" unicode="&#58641;" /><glyph d="M33 366 413 746 795 364 415 -16ZM416 159 619 362 411 570 208 367Z" glyph-name="lozenge" horiz-adv-x="843" unicode="&#9674;" /><glyph d="M29 467 115 495V740H250V539L340 569V471L250 441V0H115V396L29 368Z" glyph-name="lslash" horiz-adv-x="369" unicode="&#322;" /><glyph d="M12 325 71 342V596H205V382L339 423V325L205 284V128H406V0H71V244L12 227Z" glyph-name="lslash.smcp" horiz-adv-x="434" unicode="&#63225;" /><glyph d="M39 585H173V517Q201 554 243.5 575.5Q286 597 340 597Q409 597 456.5 570.5Q504 544 530 496Q560 542 609.5 569.5Q659 597 722 597Q840 597 900 531.5Q960 466 960 352V0H822V341Q822 405 790 442.5Q758 480 695 480Q640 480 603 442Q566 404 566 327V0H429V345Q429 408 398 444Q367 480 306 480Q249 480 211.5 441Q174 402 174 324V0H39Z" glyph-name="m" horiz-adv-x="998" unicode="m" /><glyph d="M37 596H171L330 375L495 596H622V0H488V380L329 166L170 381V0H37Z" glyph-name="m.smcp" horiz-adv-x="658" unicode="&#57869;" /><glyph d="M105 636H369V550H105Z" glyph-name="macron" horiz-adv-x="472" unicode="&#175;" /><glyph d="M349 -10Q295 -10 248 10.5Q201 31 165.5 66Q130 101 110 148.5Q90 196 90 250Q90 304 110 351.5Q130 399 165.5 434Q201 469 248 489.5Q295 510 349 510Q403 510 450 489.5Q497 469 532.5 434Q568 399 588 351.5Q608 304 608 250Q608 196 588 148.5Q568 101 532.5 66Q497 31 450 10.5Q403 -10 349 -10Z" glyph-name="mediumblackcircle" horiz-adv-x="698" unicode="&#9899;" /><glyph d="M349 -10Q295 -10 248 10.5Q201 31 165.5 66Q130 101 110 148.5Q90 196 90 250Q90 304 110 351.5Q130 399 165.5 434Q201 469 248 489.5Q295 510 349 510Q403 510 450 489.5Q497 469 532.5 434Q568 399 588 351.5Q608 304 608 250Q608 196 588 148.5Q568 101 532.5 66Q497 31 450 10.5Q403 -10 349 -10ZM349 117Q376 117 399.5 127.5Q423 138 440.5 156Q458 174 468 198.5Q478 223 478 250Q478 277 468 301.5Q458 326 440.5 344Q423 362 399.5 372.5Q376 383 349 383Q322 383 298.5 372.5Q275 362 258 344Q241 326 231 301.5Q221 277 221 250Q221 223 231 198.5Q241 174 258 156Q275 138 298.5 127.5Q322 117 349 117Z" glyph-name="mediumwhitecircle" horiz-adv-x="698" unicode="&#9898;" /><glyph d="M36 422H406V307H36Z" glyph-name="minus" horiz-adv-x="442" unicode="&#8722;" /><glyph d="M16 255H230V165H16Z" glyph-name="minus.inf" horiz-adv-x="247" unicode="&#58748;" /><glyph d="M28 526 62 730H181L111 526Z" glyph-name="minute" horiz-adv-x="207" unicode="&#8242;" /><glyph d="M32 500H168V239Q168 175 191 140.5Q214 106 262 106Q303 106 332 135Q361 164 361 227V500H495V0H362V49Q339 21 307.5 5.5Q276 -10 237 -10Q217 -10 199 -5.5Q181 -1 165 7V-230H32Z" glyph-name="mu" horiz-adv-x="527" unicode="&#181;" /><glyph d="M37 258 142 363 36 469 115 548 221 442 327 548 406 469 300 363 405 258 326 179 221 284 116 179Z" glyph-name="multiply" horiz-adv-x="442" unicode="&#215;" /><glyph d="M39 585H173V513Q202 551 246.5 574Q291 597 348 597Q457 597 518.5 531Q580 465 580 347V0H443V333Q443 401 410 440.5Q377 480 311 480Q253 480 213.5 439Q174 398 174 321V0H39Z" glyph-name="n" horiz-adv-x="619" unicode="n" /><glyph d="M37 596H182L409 237V596H542V0H408L170 374V0H37Z" glyph-name="n.smcp" horiz-adv-x="579" unicode="&#57870;" /><glyph d="M39 585H173V513Q202 551 246.5 574Q291 597 348 597Q457 597 518.5 531Q580 465 580 347V0H443V333Q443 401 410 440.5Q377 480 311 480Q253 480 213.5 439Q174 398 174 321V0H39ZM373 810H499L349 640H258Z" glyph-name="nacute" horiz-adv-x="618" unicode="&#324;" /><glyph d="M37 596H182L409 237V596H542V0H408L170 374V0H37ZM363 816H489L339 646H248Z" glyph-name="nacute.smcp" horiz-adv-x="579" unicode="&#57974;" /><glyph d="M39 585H173V513Q202 551 246.5 574Q291 597 348 597Q457 597 518.5 531Q580 465 580 347V0H443V333Q443 401 410 440.5Q377 480 311 480Q253 480 213.5 439Q174 398 174 321V0H39ZM158 810H260L319 721L378 810H480L361 640H277Z" glyph-name="ncaron" horiz-adv-x="618" unicode="&#328;" /><glyph d="M37 596H182L409 237V596H542V0H408L170 374V0H37ZM134 808H236L295 719L354 808H456L337 638H253Z" glyph-name="ncaron.smcp" horiz-adv-x="579" unicode="&#57978;" /><glyph d="M39 585H173V513Q202 551 246.5 574Q291 597 348 597Q457 597 518.5 531Q580 465 580 347V0H443V333Q443 401 410 440.5Q377 480 311 480Q253 480 213.5 439Q174 398 174 321V0H39ZM220 -233 254 -29H373L303 -233Z" glyph-name="ncommaaccent" horiz-adv-x="618" unicode="&#326;" /><glyph d="M37 596H182L409 237V596H542V0H408L170 374V0H37ZM206 -254 240 -50H359L289 -254Z" glyph-name="ncommaaccent.smcp" horiz-adv-x="579" unicode="&#57981;" /><glyph d="M296 251Q275 245 254 245Q206 245 163.5 263Q121 281 89 313.5Q57 346 38.5 391Q20 436 20 491Q20 547 40 593Q60 639 95 671.5Q130 704 177.5 722Q225 740 279 740Q336 740 383.5 721Q431 702 465.5 668.5Q500 635 519.5 589.5Q539 544 539 492Q539 441 524 391Q509 341 483 303L295 0H135ZM281 362Q307 362 330 372Q353 382 370 399.5Q387 417 397 440.5Q407 464 407 491Q407 517 397 540.5Q387 564 370 581.5Q353 599 330 609.5Q307 620 281 620Q256 620 232.5 609.5Q209 599 192 581Q175 563 164.5 539.5Q154 516 154 490Q154 463 164.5 440Q175 417 192 399.5Q209 382 232.5 372Q256 362 281 362Z" glyph-name="nine" horiz-adv-x="562" unicode="9" /><glyph d="M296 251Q275 245 254 245Q206 245 163.5 263Q121 281 89 313.5Q57 346 38.5 391Q20 436 20 491Q20 547 40 593Q60 639 95 671.5Q130 704 177.5 722Q225 740 279 740Q336 740 383.5 721Q431 702 465.5 668.5Q500 635 519.5 589.5Q539 544 539 492Q539 441 524 391Q509 341 483 303L295 0H135ZM281 362Q307 362 330 372Q353 382 370 399.5Q387 417 397 440.5Q407 464 407 491Q407 517 397 540.5Q387 564 370 581.5Q353 599 330 609.5Q307 620 281 620Q256 620 232.5 609.5Q209 599 192 581Q175 563 164.5 539.5Q154 516 154 490Q154 463 164.5 440Q175 417 192 399.5Q209 382 232.5 372Q256 362 281 362Z" glyph-name="nine.LP" horiz-adv-x="562" unicode="&#58686;" /><glyph d="M152 0 305 237Q288 233 266 233Q217 233 174.5 251.5Q132 270 100 304Q68 338 49.5 384.5Q31 431 31 487Q31 543 51 589Q71 635 106 669Q141 703 189 721.5Q237 740 293 740Q351 740 399.5 720.5Q448 701 483 666.5Q518 632 537.5 586.5Q557 541 557 488Q557 436 542 389Q527 342 501 304L313 0ZM296 352Q323 352 346 362.5Q369 373 386.5 391.5Q404 410 414 434Q424 458 424 485Q424 512 414 536Q404 560 386.5 578Q369 596 346 606.5Q323 617 296 617Q269 617 245.5 606.5Q222 596 204 578Q186 560 175.5 535.5Q165 511 165 484Q165 457 175.5 433Q186 409 204 391Q222 373 245.5 362.5Q269 352 296 352Z" glyph-name="nine.LT" horiz-adv-x="588" unicode="&#58697;" /><glyph d="M153 120Q124 120 98 131Q72 142 52.5 161.5Q33 181 22 209Q11 237 11 272Q11 305 23 333.5Q35 362 57 383Q79 404 109.5 416Q140 428 176 428Q212 428 242.5 416Q273 404 295 383Q317 362 329 333.5Q341 305 341 272Q341 240 329 207.5Q317 175 300 149L206 0H78ZM176 217Q199 217 214.5 232.5Q230 248 230 271Q230 294 214.5 309Q199 324 176 324Q153 324 138 309Q123 294 123 271Q123 248 138 232.5Q153 217 176 217Z" glyph-name="nine.inf" horiz-adv-x="352" unicode="&#58746;" /><glyph d="M641 730H797L270 0H114ZM979 -6Q943 -6 912.5 6Q882 18 860 39Q838 60 826 88.5Q814 117 814 150Q814 182 826.5 214.5Q839 247 855 273L949 422H1078L1002 303Q1032 302 1058 291Q1084 280 1103 260Q1122 240 1133 212.5Q1144 185 1144 150Q1144 117 1132 88.5Q1120 60 1098 39Q1076 18 1045.5 6Q1015 -6 979 -6ZM153 428Q124 428 98 439Q72 450 52.5 469.5Q33 489 22 517Q11 545 11 580Q11 613 23 641.5Q35 670 57 691Q79 712 109.5 724Q140 736 176 736Q212 736 242.5 724Q273 712 295 691Q317 670 329 641.5Q341 613 341 580Q341 548 329 515.5Q317 483 300 457L206 308H78ZM536 104H617V270Q606 256 590 250Q574 244 554 244H548V351H551Q572 351 585.5 358Q599 365 607 375.5Q615 386 618 398.5Q621 411 621 422H730V104H808V0H536ZM176 525Q199 525 214.5 540.5Q230 556 230 579Q230 602 214.5 617Q199 632 176 632Q153 632 138 617Q123 602 123 579Q123 556 138 540.5Q153 525 176 525ZM979 98Q1002 98 1018 113.5Q1034 129 1034 152Q1034 174 1018 189.5Q1002 205 979 205Q956 205 941.5 189.5Q927 174 927 151Q927 129 941.5 113.5Q956 98 979 98Z" glyph-name="ninesixteenths" horiz-adv-x="1155" unicode="&#61977;" /><glyph glyph-name="nonmarkingreturn" horiz-adv-x="250" unicode="" /><glyph d="M331 504H406V389H280L256 337H406V222H205L174 153H79L109 222H36V337H159L181 389H36V504H231L262 574H363Z" glyph-name="notequal" horiz-adv-x="442" unicode="&#8800;" /><glyph d="M39 585H173V513Q202 551 246.5 574Q291 597 348 597Q457 597 518.5 531Q580 465 580 347V0H443V333Q443 401 410 440.5Q377 480 311 480Q253 480 213.5 439Q174 398 174 321V0H39ZM167 646Q167 707 194.5 744Q222 781 271 781Q296 781 314 773.5Q332 766 348 757Q362 747 374.5 739.5Q387 732 400 732Q428 732 428 777H506Q506 715 480 678.5Q454 642 401 642Q372 642 351.5 652.5Q331 663 314 673Q303 680 292.5 685Q282 690 271 690Q245 690 245 646Z" glyph-name="ntilde" horiz-adv-x="618" unicode="&#241;" /><glyph d="M37 596H182L409 237V596H542V0H408L170 374V0H37ZM125 646Q125 707 152.5 744Q180 781 229 781Q254 781 272 773.5Q290 766 306 757Q320 747 332.5 739.5Q345 732 358 732Q386 732 386 777H464Q464 715 438 678.5Q412 642 359 642Q330 642 309.5 652.5Q289 663 272 673Q261 680 250.5 685Q240 690 229 690Q203 690 203 646Z" glyph-name="ntilde.smcp" horiz-adv-x="579" unicode="&#57977;" /><glyph d="M484 155H310V0H174V155H26V285H174V455H26V585H174V730H310V585H484V730H620V585H776V455H620V285H776V155H620V0H484ZM310 285H484V455H310Z" glyph-name="numbersign" horiz-adv-x="802" unicode="#" /><glyph d="M405 146 249 205 172 0H33L128 253L36 288V426L178 372L231 511L36 585V724L278 632L315 730H454L398 585L555 527L632 730H769L674 480L766 446V307L625 360L572 221L766 147V9L525 99L487 0H350ZM299 326 452 268 504 406 352 464Z" glyph-name="numbersign.alt" horiz-adv-x="802" unicode="&#62563;" /><glyph d="M323 -12Q260 -12 204.5 11.5Q149 35 108 76.5Q67 118 43.5 173.5Q20 229 20 292Q20 356 43.5 411.5Q67 467 108 508.5Q149 550 204.5 573.5Q260 597 323 597Q386 597 441 573.5Q496 550 537.5 508.5Q579 467 602.5 411.5Q626 356 626 292Q626 229 602.5 173.5Q579 118 537.5 76.5Q496 35 441 11.5Q386 -12 323 -12ZM323 115Q359 115 390 129Q421 143 444 167Q467 191 480 223.5Q493 256 493 292Q493 329 480 361.5Q467 394 444 418Q421 442 390 456Q359 470 323 470Q287 470 255.5 456Q224 442 201.5 418Q179 394 166 361.5Q153 329 153 292Q153 256 166 223.5Q179 191 201.5 167Q224 143 255.5 129Q287 115 323 115Z" glyph-name="o" horiz-adv-x="646" unicode="o" /><glyph d="M326 -8Q262 -8 206.5 16Q151 40 110 81.5Q69 123 45 178.5Q21 234 21 298Q21 361 45 417Q69 473 110 514.5Q151 556 206.5 580Q262 604 326 604Q389 604 445 580Q501 556 542.5 514.5Q584 473 608 417Q632 361 632 298Q632 234 608 178.5Q584 123 542.5 81.5Q501 40 445.5 16Q390 -8 326 -8ZM326 124Q363 124 394 137.5Q425 151 447.5 175Q470 199 483 230.5Q496 262 496 298Q496 334 483 365.5Q470 397 447.5 421Q425 445 393.5 458.5Q362 472 326 472Q290 472 259 458.5Q228 445 205.5 421Q183 397 170 365.5Q157 334 157 298Q157 262 170 230.5Q183 199 205.5 175Q228 151 259 137.5Q290 124 326 124Z" glyph-name="o.smcp" horiz-adv-x="653" unicode="&#57871;" /><glyph d="M392 815H518L368 645H277ZM323 -12Q260 -12 204.5 11.5Q149 35 108 76.5Q67 118 43.5 173.5Q20 229 20 292Q20 356 43.5 411.5Q67 467 108 508.5Q149 550 204.5 573.5Q260 597 323 597Q386 597 441 573.5Q496 550 537.5 508.5Q579 467 602.5 411.5Q626 356 626 292Q626 229 602.5 173.5Q579 118 537.5 76.5Q496 35 441 11.5Q386 -12 323 -12ZM323 115Q359 115 390 129Q421 143 444 167Q467 191 480 223.5Q493 256 493 292Q493 329 480 361.5Q467 394 444 418Q421 442 390 456Q359 470 323 470Q287 470 255.5 456Q224 442 201.5 418Q179 394 166 361.5Q153 329 153 292Q153 256 166 223.5Q179 191 201.5 167Q224 143 255.5 129Q287 115 323 115Z" glyph-name="oacute" horiz-adv-x="646" unicode="&#243;" /><glyph d="M326 -8Q262 -8 206.5 16Q151 40 110 81.5Q69 123 45 178.5Q21 234 21 298Q21 361 45 417Q69 473 110 514.5Q151 556 206.5 580Q262 604 326 604Q389 604 445 580Q501 556 542.5 514.5Q584 473 608 417Q632 361 632 298Q632 234 608 178.5Q584 123 542.5 81.5Q501 40 445.5 16Q390 -8 326 -8ZM326 124Q363 124 394 137.5Q425 151 447.5 175Q470 199 483 230.5Q496 262 496 298Q496 334 483 365.5Q470 397 447.5 421Q425 445 393.5 458.5Q362 472 326 472Q290 472 259 458.5Q228 445 205.5 421Q183 397 170 365.5Q157 334 157 298Q157 262 170 230.5Q183 199 205.5 175Q228 151 259 137.5Q290 124 326 124ZM392 816H518L368 646H277Z" glyph-name="oacute.smcp" horiz-adv-x="653" unicode="&#57985;" /><glyph d="M323 -12Q260 -12 204.5 11.5Q149 35 108 76.5Q67 118 43.5 173.5Q20 229 20 292Q20 356 43.5 411.5Q67 467 108 508.5Q149 550 204.5 573.5Q260 597 323 597Q386 597 441 573.5Q496 550 537.5 508.5Q579 467 602.5 411.5Q626 356 626 292Q626 229 602.5 173.5Q579 118 537.5 76.5Q496 35 441 11.5Q386 -12 323 -12ZM323 115Q359 115 390 129Q421 143 444 167Q467 191 480 223.5Q493 256 493 292Q493 329 480 361.5Q467 394 444 418Q421 442 390 456Q359 470 323 470Q287 470 255.5 456Q224 442 201.5 418Q179 394 166 361.5Q153 329 153 292Q153 256 166 223.5Q179 191 201.5 167Q224 143 255.5 129Q287 115 323 115ZM321 642Q280 642 249.5 655Q219 668 199 690.5Q179 713 169.5 744.5Q160 776 160 812H245Q245 764 264.5 741Q284 718 321 716Q357 718 377 741Q397 764 397 812H483Q483 776 472 744.5Q461 713 440 690.5Q419 668 389 655Q359 642 321 642Z" glyph-name="obreve" horiz-adv-x="646" unicode="&#335;" /><glyph d="M326 -8Q262 -8 206.5 16Q151 40 110 81.5Q69 123 45 178.5Q21 234 21 298Q21 361 45 417Q69 473 110 514.5Q151 556 206.5 580Q262 604 326 604Q389 604 445 580Q501 556 542.5 514.5Q584 473 608 417Q632 361 632 298Q632 234 608 178.5Q584 123 542.5 81.5Q501 40 445.5 16Q390 -8 326 -8ZM326 124Q363 124 394 137.5Q425 151 447.5 175Q470 199 483 230.5Q496 262 496 298Q496 334 483 365.5Q470 397 447.5 421Q425 445 393.5 458.5Q362 472 326 472Q290 472 259 458.5Q228 445 205.5 421Q183 397 170 365.5Q157 334 157 298Q157 262 170 230.5Q183 199 205.5 175Q228 151 259 137.5Q290 124 326 124ZM326 638Q285 638 254.5 651Q224 664 204 686.5Q184 709 174.5 740.5Q165 772 165 808H250Q250 760 269.5 737Q289 714 326 712Q362 714 382 737Q402 760 402 808H488Q488 772 477 740.5Q466 709 445 686.5Q424 664 394 651Q364 638 326 638Z" glyph-name="obreve.smcp" horiz-adv-x="653" unicode="&#57992;" /><glyph d="M323 -12Q260 -12 204.5 11.5Q149 35 108 76.5Q67 118 43.5 173.5Q20 229 20 292Q20 356 43.5 411.5Q67 467 108 508.5Q149 550 204.5 573.5Q260 597 323 597Q386 597 441 573.5Q496 550 537.5 508.5Q579 467 602.5 411.5Q626 356 626 292Q626 229 602.5 173.5Q579 118 537.5 76.5Q496 35 441 11.5Q386 -12 323 -12ZM323 115Q359 115 390 129Q421 143 444 167Q467 191 480 223.5Q493 256 493 292Q493 329 480 361.5Q467 394 444 418Q421 442 390 456Q359 470 323 470Q287 470 255.5 456Q224 442 201.5 418Q179 394 166 361.5Q153 329 153 292Q153 256 166 223.5Q179 191 201.5 167Q224 143 255.5 129Q287 115 323 115ZM284 805H368L487 635H385L326 724L267 635H165Z" glyph-name="ocircumflex" horiz-adv-x="646" unicode="&#244;" /><glyph d="M326 -8Q262 -8 206.5 16Q151 40 110 81.5Q69 123 45 178.5Q21 234 21 298Q21 361 45 417Q69 473 110 514.5Q151 556 206.5 580Q262 604 326 604Q389 604 445 580Q501 556 542.5 514.5Q584 473 608 417Q632 361 632 298Q632 234 608 178.5Q584 123 542.5 81.5Q501 40 445.5 16Q390 -8 326 -8ZM326 124Q363 124 394 137.5Q425 151 447.5 175Q470 199 483 230.5Q496 262 496 298Q496 334 483 365.5Q470 397 447.5 421Q425 445 393.5 458.5Q362 472 326 472Q290 472 259 458.5Q228 445 205.5 421Q183 397 170 365.5Q157 334 157 298Q157 262 170 230.5Q183 199 205.5 175Q228 151 259 137.5Q290 124 326 124ZM284 816H368L487 646H385L326 735L267 646H165Z" glyph-name="ocircumflex.smcp" horiz-adv-x="653" unicode="&#57987;" /><glyph d="M154 703Q154 735 173.5 755Q193 775 226 775Q260 775 279 755Q298 735 298 703Q298 671 279 651.5Q260 632 226 632Q192 632 173 651.5Q154 671 154 703ZM345 703Q345 735 364.5 755Q384 775 417 775Q450 775 469.5 755Q489 735 489 703Q489 671 469.5 651.5Q450 632 417 632Q382 632 363.5 651.5Q345 671 345 703ZM323 -12Q260 -12 204.5 11.5Q149 35 108 76.5Q67 118 43.5 173.5Q20 229 20 292Q20 356 43.5 411.5Q67 467 108 508.5Q149 550 204.5 573.5Q260 597 323 597Q386 597 441 573.5Q496 550 537.5 508.5Q579 467 602.5 411.5Q626 356 626 292Q626 229 602.5 173.5Q579 118 537.5 76.5Q496 35 441 11.5Q386 -12 323 -12ZM323 115Q359 115 390 129Q421 143 444 167Q467 191 480 223.5Q493 256 493 292Q493 329 480 361.5Q467 394 444 418Q421 442 390 456Q359 470 323 470Q287 470 255.5 456Q224 442 201.5 418Q179 394 166 361.5Q153 329 153 292Q153 256 166 223.5Q179 191 201.5 167Q224 143 255.5 129Q287 115 323 115Z" glyph-name="odieresis" horiz-adv-x="646" unicode="&#246;" /><glyph d="M326 -8Q262 -8 206.5 16Q151 40 110 81.5Q69 123 45 178.5Q21 234 21 298Q21 361 45 417Q69 473 110 514.5Q151 556 206.5 580Q262 604 326 604Q389 604 445 580Q501 556 542.5 514.5Q584 473 608 417Q632 361 632 298Q632 234 608 178.5Q584 123 542.5 81.5Q501 40 445.5 16Q390 -8 326 -8ZM326 124Q363 124 394 137.5Q425 151 447.5 175Q470 199 483 230.5Q496 262 496 298Q496 334 483 365.5Q470 397 447.5 421Q425 445 393.5 458.5Q362 472 326 472Q290 472 259 458.5Q228 445 205.5 421Q183 397 170 365.5Q157 334 157 298Q157 262 170 230.5Q183 199 205.5 175Q228 151 259 137.5Q290 124 326 124ZM159 715Q159 747 178.5 767Q198 787 231 787Q265 787 284 767Q303 747 303 715Q303 683 284 663.5Q265 644 231 644Q197 644 178 663.5Q159 683 159 715ZM350 715Q350 747 369.5 767Q389 787 422 787Q455 787 474.5 767Q494 747 494 715Q494 683 474.5 663.5Q455 644 422 644Q387 644 368.5 663.5Q350 683 350 715Z" glyph-name="odieresis.smcp" horiz-adv-x="653" unicode="&#57988;" /><glyph d="M323 -12Q260 -12 204.5 11.5Q149 35 108 76.5Q67 118 43.5 173.5Q20 229 20 292Q20 356 43.5 411.5Q67 467 108 508.5Q149 550 204.5 573.5Q260 597 323 597Q400 597 461 565Q522 533 561 478Q600 532 660 564.5Q720 597 798 597Q863 597 918.5 574.5Q974 552 1014.5 511.5Q1055 471 1077.5 416Q1100 361 1100 296V249H624Q636 185 684 146Q732 107 805 107Q862 107 905.5 136.5Q949 166 972 213L1085 164Q1047 84 974 36Q901 -12 804 -12Q721 -12 659 19.5Q597 51 559 105Q519 51 458.5 19.5Q398 -12 323 -12ZM323 115Q359 115 390 129Q421 143 444.5 167Q468 191 481 223.5Q494 256 494 292Q494 329 481 361.5Q468 394 444.5 418Q421 442 390 456Q359 470 323 470Q286 470 255 456Q224 442 201 418Q178 394 165 361.5Q152 329 152 292Q152 256 165 223.5Q178 191 201 167Q224 143 255 129Q286 115 323 115ZM800 478Q739 478 695.5 446Q652 414 632 362H963Q946 419 903 448.5Q860 478 800 478Z" glyph-name="oe" horiz-adv-x="1121" unicode="&#339;" /><glyph d="M500 53Q465 24 421.5 8Q378 -8 326 -8Q262 -8 206.5 16Q151 40 110 81.5Q69 123 45 178.5Q21 234 21 298Q21 361 45 417Q69 473 110 514.5Q151 556 206.5 580Q262 604 326 604Q378 604 421.5 587.5Q465 571 500 542V596H854V471H633V362H854V236H633V125H854V0H500ZM326 124Q363 124 394 137.5Q425 151 447.5 175Q470 199 483 230.5Q496 262 496 298Q496 334 483 365.5Q470 397 447.5 421Q425 445 393.5 458.5Q362 472 326 472Q290 472 259 458.5Q228 445 205.5 421Q183 397 170 365.5Q157 334 157 298Q157 262 170 230.5Q183 199 205.5 175Q228 151 259 137.5Q290 124 326 124Z" glyph-name="oe.smcp" horiz-adv-x="885" unicode="&#58008;" /><glyph d="M232 -227Q167 -227 127.5 -195.5Q88 -164 88 -118Q88 -98 95 -79Q102 -60 119 -40.5Q136 -21 165 -0.5Q194 20 238 42L319 0Q278 -27 252.5 -44.5Q227 -62 213 -74Q199 -86 194 -94.5Q189 -103 189 -113Q189 -130 202 -137Q215 -144 232 -144Q252 -144 265 -135Q278 -126 292 -115L371 -169Q345 -193 306.5 -210Q268 -227 232 -227Z" glyph-name="ogonek" horiz-adv-x="472" unicode="&#731;" /><glyph d="M323 -12Q260 -12 204.5 11.5Q149 35 108 76.5Q67 118 43.5 173.5Q20 229 20 292Q20 340 33.5 383Q47 426 71.5 462.5Q96 499 130 527.5Q164 556 205 573L76 720H203L287 595Q296 596 305 596.5Q314 597 323 597Q386 597 441 573.5Q496 550 537.5 508.5Q579 467 602.5 411.5Q626 356 626 292Q626 229 602.5 173.5Q579 118 537.5 76.5Q496 35 441 11.5Q386 -12 323 -12ZM323 115Q359 115 390 129Q421 143 444 167Q467 191 480 223.5Q493 256 493 292Q493 329 480 361.5Q467 394 444 418Q421 442 390 456Q359 470 323 470Q287 470 255.5 456Q224 442 201.5 418Q179 394 166 361.5Q153 329 153 292Q153 256 166 223.5Q179 191 201.5 167Q224 143 255.5 129Q287 115 323 115Z" glyph-name="ograve" horiz-adv-x="646" unicode="&#242;" /><glyph d="M326 -8Q262 -8 206.5 16Q151 40 110 81.5Q69 123 45 178.5Q21 234 21 298Q21 361 45 417Q69 473 110 514.5Q151 556 206.5 580Q262 604 326 604Q389 604 445 580Q501 556 542.5 514.5Q584 473 608 417Q632 361 632 298Q632 234 608 178.5Q584 123 542.5 81.5Q501 40 445.5 16Q390 -8 326 -8ZM326 124Q363 124 394 137.5Q425 151 447.5 175Q470 199 483 230.5Q496 262 496 298Q496 334 483 365.5Q470 397 447.5 421Q425 445 393.5 458.5Q362 472 326 472Q290 472 259 458.5Q228 445 205.5 421Q183 397 170 365.5Q157 334 157 298Q157 262 170 230.5Q183 199 205.5 175Q228 151 259 137.5Q290 124 326 124ZM144 816H271L385 646H294Z" glyph-name="ograve.smcp" horiz-adv-x="653" unicode="&#57986;" /><glyph d="M26 130H197Q155 184 124 256.5Q93 329 93 417Q93 484 118 543Q143 602 186 646Q229 690 288 715.5Q347 741 414 741Q481 741 540 715.5Q599 690 642.5 646Q686 602 711.5 543Q737 484 737 417Q736 329 705 256.5Q674 184 632 130H803V0H513L459 114Q492 154 518 191Q544 228 562.5 264.5Q581 301 591 339.5Q601 378 601 421Q601 461 587 496Q573 531 548 557Q523 583 488.5 598Q454 613 414 613Q375 613 341 598Q307 583 282 557Q257 531 243 496Q229 461 229 421Q229 378 239 339.5Q249 301 267 264.5Q285 228 311.5 191Q338 154 371 114L326 0H26Z" glyph-name="ohm" horiz-adv-x="829" unicode="&#59425;" /><glyph d="M303 808H423L273 638H189ZM469 808H589L439 638H355ZM323 -12Q260 -12 204.5 11.5Q149 35 108 76.5Q67 118 43.5 173.5Q20 229 20 292Q20 356 43.5 411.5Q67 467 108 508.5Q149 550 204.5 573.5Q260 597 323 597Q386 597 441 573.5Q496 550 537.5 508.5Q579 467 602.5 411.5Q626 356 626 292Q626 229 602.5 173.5Q579 118 537.5 76.5Q496 35 441 11.5Q386 -12 323 -12ZM323 115Q359 115 390 129Q421 143 444 167Q467 191 480 223.5Q493 256 493 292Q493 329 480 361.5Q467 394 444 418Q421 442 390 456Q359 470 323 470Q287 470 255.5 456Q224 442 201.5 418Q179 394 166 361.5Q153 329 153 292Q153 256 166 223.5Q179 191 201.5 167Q224 143 255.5 129Q287 115 323 115Z" glyph-name="ohungarumlaut" horiz-adv-x="646" unicode="&#337;" /><glyph d="M326 -8Q262 -8 206.5 16Q151 40 110 81.5Q69 123 45 178.5Q21 234 21 298Q21 361 45 417Q69 473 110 514.5Q151 556 206.5 580Q262 604 326 604Q389 604 445 580Q501 556 542.5 514.5Q584 473 608 417Q632 361 632 298Q632 234 608 178.5Q584 123 542.5 81.5Q501 40 445.5 16Q390 -8 326 -8ZM326 124Q363 124 394 137.5Q425 151 447.5 175Q470 199 483 230.5Q496 262 496 298Q496 334 483 365.5Q470 397 447.5 421Q425 445 393.5 458.5Q362 472 326 472Q290 472 259 458.5Q228 445 205.5 421Q183 397 170 365.5Q157 334 157 298Q157 262 170 230.5Q183 199 205.5 175Q228 151 259 137.5Q290 124 326 124ZM309 813H429L279 643H195ZM475 813H595L445 643H361Z" glyph-name="ohungarumlaut.smcp" horiz-adv-x="653" unicode="&#57994;" /><glyph d="M193 731H457V645H193ZM323 -12Q260 -12 204.5 11.5Q149 35 108 76.5Q67 118 43.5 173.5Q20 229 20 292Q20 356 43.5 411.5Q67 467 108 508.5Q149 550 204.5 573.5Q260 597 323 597Q386 597 441 573.5Q496 550 537.5 508.5Q579 467 602.5 411.5Q626 356 626 292Q626 229 602.5 173.5Q579 118 537.5 76.5Q496 35 441 11.5Q386 -12 323 -12ZM323 115Q359 115 390 129Q421 143 444 167Q467 191 480 223.5Q493 256 493 292Q493 329 480 361.5Q467 394 444 418Q421 442 390 456Q359 470 323 470Q287 470 255.5 456Q224 442 201.5 418Q179 394 166 361.5Q153 329 153 292Q153 256 166 223.5Q179 191 201.5 167Q224 143 255.5 129Q287 115 323 115Z" glyph-name="omacron" horiz-adv-x="646" unicode="&#333;" /><glyph d="M326 -8Q262 -8 206.5 16Q151 40 110 81.5Q69 123 45 178.5Q21 234 21 298Q21 361 45 417Q69 473 110 514.5Q151 556 206.5 580Q262 604 326 604Q389 604 445 580Q501 556 542.5 514.5Q584 473 608 417Q632 361 632 298Q632 234 608 178.5Q584 123 542.5 81.5Q501 40 445.5 16Q390 -8 326 -8ZM326 124Q363 124 394 137.5Q425 151 447.5 175Q470 199 483 230.5Q496 262 496 298Q496 334 483 365.5Q470 397 447.5 421Q425 445 393.5 458.5Q362 472 326 472Q290 472 259 458.5Q228 445 205.5 421Q183 397 170 365.5Q157 334 157 298Q157 262 170 230.5Q183 199 205.5 175Q228 151 259 137.5Q290 124 326 124ZM194 732H458V646H194Z" glyph-name="omacron.smcp" horiz-adv-x="653" unicode="&#57991;" /><glyph d="M124 0V603H35V730H260V0Z" glyph-name="one" horiz-adv-x="331" unicode="1" /><glyph d="M35 130H179V526Q162 501 128.5 484Q95 467 61 467H50V610H55Q91 610 115.5 621.5Q140 633 155.5 650.5Q171 668 177.5 689.5Q184 711 184 730H315V130H450V0H35Z" glyph-name="one.LP" horiz-adv-x="476" unicode="&#58678;" /><glyph d="M45 130H228V526Q211 501 177.5 484Q144 467 110 467H99V610H104Q140 610 164.5 621.5Q189 633 204.5 650.5Q220 668 226.5 689.5Q233 711 233 730H364V130H543V0H45Z" glyph-name="one.LT" horiz-adv-x="588" unicode="&#58689;" /><glyph d="M14 104H95V270Q84 256 68 250Q52 244 32 244H26V351H29Q50 351 63.5 358Q77 365 85 375.5Q93 386 96 398.5Q99 411 99 422H208V104H286V0H14Z" glyph-name="one.inf" horiz-adv-x="298" unicode="&#58738;" /><glyph d="M612 730H768L241 0H85ZM553 83Q553 115 563.5 138.5Q574 162 590.5 180Q607 198 627.5 211.5Q648 225 668 235Q698 252 720.5 266Q743 280 743 299Q743 312 732.5 321.5Q722 331 702 331Q679 331 663.5 314Q648 297 640 277L543 327Q566 374 606 401Q646 428 704 428Q773 428 815.5 392Q858 356 858 300Q858 270 847 247Q836 224 819 207Q802 190 781 177Q760 164 740 154Q714 140 695 128.5Q676 117 674 104H855V0H553ZM14 412H95V578Q84 564 68 558Q52 552 32 552H26V659H29Q50 659 63.5 666Q77 673 85 683.5Q93 694 96 706.5Q99 719 99 730H208V412H286V308H14Z" glyph-name="onehalf" horiz-adv-x="870" unicode="&#189;" /><glyph d="M612 730H768L241 0H85ZM674 84H505V183L673 422H778V179H840V84H778V0H674ZM14 412H95V578Q84 564 68 558Q52 552 32 552H26V659H29Q50 659 63.5 666Q77 673 85 683.5Q93 694 96 706.5Q99 719 99 730H208V412H286V308H14ZM674 179V256L621 179Z" glyph-name="onequarter" horiz-adv-x="854" unicode="&#188;" /><glyph d="M612 730H769L242 0H85ZM950 -6Q914 -6 883.5 6Q853 18 831 39Q809 60 797 88.5Q785 117 785 150Q785 182 797.5 214.5Q810 247 827 273L921 422H1049L973 303Q1003 302 1029 291Q1055 280 1074.5 260Q1094 240 1105 212.5Q1116 185 1116 150Q1116 117 1104 88.5Q1092 60 1070 39Q1048 18 1017.5 6Q987 -6 950 -6ZM14 412H95V578Q84 564 68 558Q52 552 32 552H26V659H29Q50 659 63.5 666Q77 673 85 683.5Q93 694 96 706.5Q99 719 99 730H208V412H286V308H14ZM507 104H589V271Q579 257 562 250.5Q545 244 525 244H519V351H522Q543 351 556.5 358Q570 365 578 375.5Q586 386 589 398.5Q592 411 592 422H701V104H779V0H507ZM950 98Q973 98 989 113.5Q1005 129 1005 152Q1005 174 989 189.5Q973 205 950 205Q928 205 913 189.5Q898 174 898 151Q898 129 913 113.5Q928 98 950 98Z" glyph-name="onesixteenth" horiz-adv-x="1126" unicode="&#61973;" /><glyph d="M14 412H95V578Q84 564 68 558Q52 552 32 552H26V659H29Q50 659 63.5 666Q77 673 85 683.5Q93 694 96 706.5Q99 719 99 730H208V412H286V308H14Z" glyph-name="onesuperior" horiz-adv-x="298" unicode="&#185;" /><glyph d="M36 312H356V197H36Z" glyph-name="onethirdemdash" horiz-adv-x="392" unicode="&#58481;" /><glyph d="M36 416H356V302H36Z" glyph-name="onethirdemdash.cap" horiz-adv-x="392" unicode="&#58499;" /><glyph d="M151 435Q130 435 107 443.5Q84 452 64.5 470Q45 488 32.5 516.5Q20 545 20 585Q20 626 33 654.5Q46 683 66 701Q86 719 109 727.5Q132 736 153 736Q179 736 198 727Q217 718 230 704V730H328V440H230V471Q216 455 196 445Q176 435 151 435ZM176 525Q202 525 217.5 543Q233 561 233 586Q233 611 217.5 628.5Q202 646 176 646Q150 646 133 629.5Q116 613 116 586Q116 560 133 542.5Q150 525 176 525Z" glyph-name="ordfeminine" horiz-adv-x="364" unicode="&#170;" /><glyph d="M127 434Q72 434 46.5 458.5Q21 483 21 521Q21 547 32.5 563.5Q44 580 62.5 591Q81 602 104 608Q127 614 149 618Q181 623 203.5 628Q226 633 226 646Q226 662 183 662Q159 662 144 655Q129 648 129 631V629H28Q28 678 69.5 707Q111 736 183 736Q263 736 294.5 707Q326 678 326 632V440H228V467Q210 453 184.5 443.5Q159 434 127 434ZM149 510Q164 510 179.5 515.5Q195 521 207 529.5Q219 538 226.5 547.5Q234 557 234 564V574Q224 566 206.5 560Q189 554 172 549Q152 543 138.5 537Q125 531 125 523Q125 510 149 510Z" glyph-name="ordfeminine.alt" horiz-adv-x="362" unicode="&#59686;" /><glyph d="M114 730H227L327 440H228L216 475H125L114 440H14ZM171 612 152 554H190Z" glyph-name="ordfeminine.smcp" horiz-adv-x="341" unicode="&#58193;" /><glyph d="M170 435Q139 435 111.5 447Q84 459 64 479Q44 499 32 526.5Q20 554 20 585Q20 617 32 644.5Q44 672 64 692Q84 712 111.5 724Q139 736 170 736Q201 736 228 724Q255 712 275.5 692Q296 672 307.5 644.5Q319 617 319 585Q319 554 307.5 526.5Q296 499 275.5 479Q255 459 228 447Q201 435 170 435ZM170 528Q193 528 209 545Q225 562 225 585Q225 609 209 626Q193 643 170 643Q146 643 130.5 626Q115 609 115 585Q115 562 130.5 545Q146 528 170 528Z" glyph-name="ordmasculine" horiz-adv-x="339" unicode="&#186;" /><glyph d="M170 435Q139 435 111.5 447Q84 459 64 479Q44 499 32 526.5Q20 554 20 585Q20 617 32 644.5Q44 672 64 692Q84 712 111.5 724Q139 736 170 736Q201 736 228 724Q255 712 275.5 692Q296 672 307.5 644.5Q319 617 319 585Q319 554 307.5 526.5Q296 499 275.5 479Q255 459 228 447Q201 435 170 435ZM170 528Q193 528 209 545Q225 562 225 585Q225 609 209 626Q193 643 170 643Q146 643 130.5 626Q115 609 115 585Q115 562 130.5 545Q146 528 170 528Z" glyph-name="ordmasculine.smcp" horiz-adv-x="339" unicode="&#58194;" /><glyph d="M323 -12Q283 -12 246.5 -2.5Q210 7 178 24L159 0H20L93 92Q58 132 39 183Q20 234 20 292Q20 356 43.5 411.5Q67 467 108 508.5Q149 550 204.5 573.5Q260 597 323 597Q362 597 398 587.5Q434 578 466 561L485 585H624L551 493Q586 453 606 401.5Q626 350 626 292Q626 229 602.5 173.5Q579 118 537.5 76.5Q496 35 441 11.5Q386 -12 323 -12ZM323 115Q359 115 390 129Q421 143 444.5 167Q468 191 481 223.5Q494 256 494 292Q494 318 487 342.5Q480 367 467 388L260 127Q289 115 323 115ZM152 292Q152 240 177 198L384 458Q356 470 323 470Q286 470 255 456Q224 442 201 418Q178 394 165 361.5Q152 329 152 292Z" glyph-name="oslash" horiz-adv-x="646" unicode="&#248;" /><glyph d="M326 -8Q286 -8 249 1.5Q212 11 180 28L157 0H7L91 102Q58 142 39.5 191.5Q21 241 21 298Q21 361 45 417Q69 473 110 514.5Q151 556 206.5 580Q262 604 326 604Q367 604 404 594Q441 584 474 565L499 596H649L563 491Q595 451 613.5 402Q632 353 632 298Q632 234 608 178.5Q584 123 542.5 81.5Q501 40 445.5 16Q390 -8 326 -8ZM156 298Q156 249 179 209L387 461Q357 472 326 472Q290 472 259 458.5Q228 445 205 421Q182 397 169 365.5Q156 334 156 298ZM326 124Q363 124 394 137.5Q425 151 447.5 175Q470 199 483 230.5Q496 262 496 298Q496 345 474 384L267 134Q293 124 326 124Z" glyph-name="oslash.smcp" horiz-adv-x="653" unicode="&#58005;" /><glyph d="M323 -12Q283 -12 246.5 -2.5Q210 7 178 24L159 0H20L93 92Q58 132 39 183Q20 234 20 292Q20 356 43.5 411.5Q67 467 108 508.5Q149 550 204.5 573.5Q260 597 323 597Q362 597 398 587.5Q434 578 466 561L485 585H624L551 493Q586 453 606 401.5Q626 350 626 292Q626 229 602.5 173.5Q579 118 537.5 76.5Q496 35 441 11.5Q386 -12 323 -12ZM323 115Q359 115 390 129Q421 143 444.5 167Q468 191 481 223.5Q494 256 494 292Q494 318 487 342.5Q480 367 467 388L260 127Q289 115 323 115ZM152 292Q152 240 177 198L384 458Q356 470 323 470Q286 470 255 456Q224 442 201 418Q178 394 165 361.5Q152 329 152 292ZM393 810H519L369 640H278Z" glyph-name="oslashacute" horiz-adv-x="646" unicode="&#511;" /></font>
</defs>
</svg>
